FAQ  •  Register  •  Login

online directory disappeared

<<

barbablu

Serviio newbie

Posts: 5

Joined: Wed Sep 13, 2017 2:13 pm

Post Wed Sep 13, 2017 2:28 pm

online directory disappeared

I upgraded serviio to 1.9 version, but now when I browse the "online" directory on Samsung TV it says "no content available". In the past I had a working online stream by acestream.
On serviio I added another online sources (under library) but it does not appear on TV.
I checked the source url to verify if the stream was correct and indeed it says "The stream url is valid".
I have no firewall. I restarded wi-fi, pc, tv, serviio with no success.
Samsung TV is UE50J6240.
Can you help me?
Here is the debug log file
2017-09-13 16:01:20,315 INFO [AbstractAVTranscodingDeliveryEngine] Cleaning transcode engine and its data
2017-09-13 16:01:20,315 INFO [WebServer] WebServer shutting down
2017-09-13 16:01:20,315 INFO [DiscoveryAdvertisementNotifier] Leaving DiscoveryAdvertisementNotifier
2017-09-13 16:01:20,316 INFO [EventDispatcher] Leaving EventDispatcher
2017-09-13 16:01:20,316 INFO [EventSubscriptionExpirationChecker] Leaving EventSubscriptionExpirationChecker, removing all event subscriptions
2017-09-13 16:01:20,316 INFO [DiscoverySSDPMessageListener] Leaving DiscoverySSDPMessageListener
2017-09-13 16:01:21,837 INFO [RendererExpirationChecker] Leaving RendererExpirationChecker
2017-09-13 16:01:50,226 INFO [WebServer] WebServer starting on port 8895
2017-09-13 16:01:50,347 INFO [Device] Updated bound IP address of Device with UUID: 223a9375-eb61-3269-abcf-3ad9f2e63b1f, bound address: 192.168.1.6
2017-09-13 16:01:50,348 INFO [EventSubscriptionExpirationChecker] Starting EventSubscriptionExpirationChecker
2017-09-13 16:01:50,348 INFO [EventDispatcher] Starting EventDispatcher
2017-09-13 16:01:50,348 INFO [DiscoveryAdvertisementNotifier] Starting DiscoveryAdvertisementNotifier
2017-09-13 16:01:50,348 INFO [RendererSearchSender] Starting Renderer searcher process
2017-09-13 16:01:50,394 INFO [DiscoverySSDPMessageListener] Starting DiscoverySSDPMessageListener using interface eth6 (Realtek PCIe GBE Family Controller) and address 192.168.1.6, timeout = 0
2017-09-13 16:02:50,932 INFO [AbstractAVTranscodingDeliveryEngine] Cleaning transcode engine and its data
2017-09-13 16:02:50,932 INFO [WebServer] WebServer shutting down
2017-09-13 16:02:50,932 INFO [DiscoveryAdvertisementNotifier] Leaving DiscoveryAdvertisementNotifier
2017-09-13 16:02:50,932 INFO [DiscoverySSDPMessageListener] Leaving DiscoverySSDPMessageListener
2017-09-13 16:02:50,932 INFO [EventDispatcher] Leaving EventDispatcher
2017-09-13 16:02:50,932 INFO [EventSubscriptionExpirationChecker] Leaving EventSubscriptionExpirationChecker, removing all event subscriptions
2017-09-13 16:04:42,607 INFO [WebServer] WebServer starting on port 8895
2017-09-13 16:04:42,719 INFO [Device] Updated bound IP address of Device with UUID: 223a9375-eb61-3269-abcf-3ad9f2e63b1f, bound address: 192.168.1.6
2017-09-13 16:04:42,719 INFO [EventSubscriptionExpirationChecker] Starting EventSubscriptionExpirationChecker
2017-09-13 16:04:42,719 INFO [RendererSearchSender] Starting Renderer searcher process
2017-09-13 16:04:42,719 INFO [EventDispatcher] Starting EventDispatcher
2017-09-13 16:04:42,719 INFO [DiscoveryAdvertisementNotifier] Starting DiscoveryAdvertisementNotifier
2017-09-13 16:04:42,767 INFO [DiscoverySSDPMessageListener] Starting DiscoverySSDPMessageListener using interface eth6 (Realtek PCIe GBE Family Controller) and address 192.168.1.6, timeout = 0
2017-09-13 16:06:21,439 INFO [AbstractAVTranscodingDeliveryEngine] Cleaning transcode engine and its data
2017-09-13 16:06:21,440 INFO [WebServer] WebServer shutting down
2017-09-13 16:06:21,440 INFO [DiscoveryAdvertisementNotifier] Leaving DiscoveryAdvertisementNotifier
2017-09-13 16:06:21,440 INFO [EventSubscriptionExpirationChecker] Leaving EventSubscriptionExpirationChecker, removing all event subscriptions
2017-09-13 16:06:21,440 INFO [DiscoverySSDPMessageListener] Leaving DiscoverySSDPMessageListener
2017-09-13 16:06:21,440 INFO [EventDispatcher] Leaving EventDispatcher
<<

atc98092

User avatar

DLNA master

Posts: 2221

Joined: Fri Aug 17, 2012 10:22 pm

Location: Washington (the state) - temporary assignment to Washington DC

Post Wed Sep 13, 2017 5:01 pm

Re: online directory disappeared

That log snippet is far too little to see what's happening. You need a complete log file from startup to shutdown. Best to make the debug log, shut down and zip the file(s) and then add them as an attachment to a message here.
Dan

Panasonic ST30 Plasma, Samsung JU7100 4K TV, Sony BDP-S3500, Sharp 4K Roku TV, Roku 2 XS, 4, Ultra and Stick, Yamaha RX-V679 AVR.
Primary server: Intel i5-6400, 8 gig ram, Windows 10 Pro, 18 TB hard drive space | Test server Windows 7 Home Premium, AMD Phenom II X4 965, 8 gig ram

Enable debug logging Identify video file contents
<<

barbablu

Serviio newbie

Posts: 5

Joined: Wed Sep 13, 2017 2:13 pm

Post Thu Sep 14, 2017 3:28 pm

Re: online directory disappeared

Thank you for your help. I attached the debug log file. I think this is the problem:
2017-09-14 16:31:53,444 WARN [FeedUpdaterWorker] Failed to retrieve online item information for http://localhost:8902/tv.asf. It might not play.
java.io.IOException: org.serviio.library.local.metadata.extractor.InvalidMediaFormatException: Unknown video file type.
...........

I upgraded java to the last version (8) but with no success. I want to show you that when I am on serviio it says everything is fine about online source.
serviio-Immagine.jpg
serviio-Immagine.jpg (165.7 KiB) Viewed 501 times
Attachments
serviio-forum.zip
(33.27 KiB) Downloaded 15 times
<<

zip

User avatar

Serviio developer / Site Admin

Posts: 16499

Joined: Sat Oct 24, 2009 12:24 pm

Location: London, UK

Post Tue Sep 19, 2017 1:04 pm

Re: online directory disappeared

can you post result of

  Code:
ffmpeg -i "http://localhost:8902/tv.asf"
<<

barbablu

Serviio newbie

Posts: 5

Joined: Wed Sep 13, 2017 2:13 pm

Post Tue Sep 19, 2017 2:50 pm

Re: online directory disappeared

ffmpeg version N-87327-g18821e3 Copyright (c) 2000-2017 the FFmpeg developers
built with gcc 7.2.0 (GCC)
configuration: --enable-gpl --enable-version3 --enable-cuda --enable-cuvid --enable-d3d11va --enable-dxva2 --enable-libmfx --enable-nvenc --enable-avisynth --enable-bzlib --enable-fontconfig --enable-frei0r --enable-gnutls --enable-iconv --enable-libass --enable-libbluray --enable-libbs2b --enable-libcaca --enable-libfreetype --enable-libgme --enable-libgsm --enable-libilbc --enable-libmodplug --enable-libmp3lame --enable-libopencore-amrnb --enable-libopencore-amrwb --enable-libopenh264 --enable-libopenjpeg --enable-libopus --enable-librtmp --enable-libsnappy --enable-libsoxr --enable-libspeex --enable-libtheora --enable-libtwolame --enable-libvidstab --enable-libvo-amrwbenc --enable-libvorbis --enable-libvpx --enable-libwavpack --enable-libwebp --enable-libx264 --enable-libx265 --enable-libxavs --enable-libxvid --enable-libxml2 --enable-libzimg --enable-lzma --enable-zlib
libavutil 55. 75.100 / 55. 75.100
libavcodec 57.106.101 / 57.106.101
libavformat 57. 82.100 / 57. 82.100
libavdevice 57. 8.101 / 57. 8.101
libavfilter 6.105.100 / 6.105.100
libswscale 4. 7.103 / 4. 7.103
libswresample 2. 8.100 / 2. 8.100
libpostproc 54. 6.100 / 54. 6.100
[h264 @ 0000000002515500] non-existing PPS 0 referenced
Last message repeated 1 times
[h264 @ 0000000002515500] decode_slice_header error
[h264 @ 0000000002515500] no frame!
[h264 @ 0000000002515500] non-existing PPS 0 referenced
Last message repeated 1 times
[h264 @ 0000000002515500] decode_slice_header error
[h264 @ 0000000002515500] no frame!
[h264 @ 0000000002515500] non-existing PPS 0 referenced
Last message repeated 1 times
[h264 @ 0000000002515500] decode_slice_header error
[h264 @ 0000000002515500] no frame!
[h264 @ 0000000002515500] non-existing PPS 0 referenced
Last message repeated 1 times
[h264 @ 0000000002515500] decode_slice_header error
[h264 @ 0000000002515500] no frame!
[h264 @ 0000000002515500] non-existing PPS 0 referenced
Last message repeated 1 times
[h264 @ 0000000002515500] decode_slice_header error
[h264 @ 0000000002515500] no frame!
[h264 @ 0000000002515500] non-existing PPS 0 referenced
Last message repeated 1 times
[h264 @ 0000000002515500] decode_slice_header error
[h264 @ 0000000002515500] no frame!
[h264 @ 0000000002515500] non-existing PPS 0 referenced
Last message repeated 1 times
[h264 @ 0000000002515500] decode_slice_header error
[h264 @ 0000000002515500] no frame!
[h264 @ 0000000002515500] non-existing PPS 0 referenced
Last message repeated 1 times
[h264 @ 0000000002515500] decode_slice_header error
[h264 @ 0000000002515500] no frame!
[h264 @ 0000000002515500] non-existing PPS 0 referenced
Last message repeated 1 times
[h264 @ 0000000002515500] decode_slice_header error
[h264 @ 0000000002515500] no frame!
[h264 @ 0000000002515500] non-existing PPS 0 referenced
Last message repeated 1 times
[h264 @ 0000000002515500] decode_slice_header error
[h264 @ 0000000002515500] no frame!
[h264 @ 0000000002515500] non-existing PPS 0 referenced
Last message repeated 1 times
[h264 @ 0000000002515500] decode_slice_header error
[h264 @ 0000000002515500] no frame!
[h264 @ 0000000002515500] non-existing PPS 0 referenced
Last message repeated 1 times
[h264 @ 0000000002515500] decode_slice_header error
[h264 @ 0000000002515500] no frame!
[h264 @ 0000000002515500] non-existing PPS 0 referenced
Last message repeated 1 times
[h264 @ 0000000002515500] decode_slice_header error
[h264 @ 0000000002515500] no frame!
[h264 @ 0000000002515500] non-existing PPS 0 referenced
Last message repeated 1 times
[h264 @ 0000000002515500] decode_slice_header error
[h264 @ 0000000002515500] no frame!
[h264 @ 0000000002515500] non-existing PPS 0 referenced
Last message repeated 1 times
[h264 @ 0000000002515500] decode_slice_header error
[h264 @ 0000000002515500] no frame!
[h264 @ 0000000002515500] non-existing PPS 0 referenced
Last message repeated 1 times
[h264 @ 0000000002515500] decode_slice_header error
[h264 @ 0000000002515500] no frame!
[h264 @ 0000000002515500] non-existing PPS 0 referenced
Last message repeated 1 times
[h264 @ 0000000002515500] decode_slice_header error
[h264 @ 0000000002515500] no frame!
Input #0, mpegts, from 'http://localhost:8902/tv.asf':
Duration: N/A, start: 51501.933200, bitrate: N/A
Program 1
Stream #0:0[0x44](spa): Audio: mp3 ([3][0][0][0] / 0x0003), 44100 Hz, stereo, s16p, 96 kb/s
Stream #0:1[0x45]: Video: h264 (High) ([27][0][0][0] / 0x001B), yuv420p(progressive), 1280x720 [SAR 1:1 DAR 16:9], 25 fps, 25 tbr, 90k tbn, 50 tbc
At least one output file must be specified
<<

zip

User avatar

Serviio developer / Site Admin

Posts: 16499

Joined: Sat Oct 24, 2009 12:24 pm

Location: London, UK

Post Tue Sep 19, 2017 10:51 pm

Re: online directory disappeared

How about

  Code:
ffmpeg.exe -analyzeduration 10000000 -i http://localhost:8902/tv.asf


.. and how long does it take to return the output?
<<

barbablu

Serviio newbie

Posts: 5

Joined: Wed Sep 13, 2017 2:13 pm

Post Wed Sep 20, 2017 8:20 am

Re: online directory disappeared

Microsoft Windows [Versione 10.0.15063]
(c) 2017 Microsoft Corporation. Tutti i diritti sono riservati.



C:\Users>ffmpeg.exe -analyzeduration 10000000 -i http://localhost:8902/tv.asf
ffmpeg version N-87327-g18821e3 Copyright (c) 2000-2017 the FFmpeg developers
built with gcc 7.2.0 (GCC)
configuration: --enable-gpl --enable-version3 --enable-cuda --enable-cuvid --enable-d3d11va --enable-dxva2 --enable-libmfx --enable-nvenc --enable-avisynth --enable-bzlib --enable-fontconfig --enable-frei0r --enable-gnutls --enable-iconv --enable-libass --enable-libbluray --enable-libbs2b --enable-libcaca --enable-libfreetype --enable-libgme --enable-libgsm --enable-libilbc --enable-libmodplug --enable-libmp3lame --enable-libopencore-amrnb --enable-libopencore-amrwb --enable-libopenh264 --enable-libopenjpeg --enable-libopus --enable-librtmp --enable-libsnappy --enable-libsoxr --enable-libspeex --enable-libtheora --enable-libtwolame --enable-libvidstab --enable-libvo-amrwbenc --enable-libvorbis --enable-libvpx --enable-libwavpack --enable-libwebp --enable-libx264 --enable-libx265 --enable-libxavs --enable-libxvid --enable-libxml2 --enable-libzimg --enable-lzma --enable-zlib
libavutil 55. 75.100 / 55. 75.100
libavcodec 57.106.101 / 57.106.101
libavformat 57. 82.100 / 57. 82.100
libavdevice 57. 8.101 / 57. 8.101
libavfilter 6.105.100 / 6.105.100
libswscale 4. 7.103 / 4. 7.103
libswresample 2. 8.100 / 2. 8.100
libpostproc 54. 6.100 / 54. 6.100
[h264 @ 0000000002645800] non-existing PPS 0 referenced
Last message repeated 1 times
[h264 @ 0000000002645800] decode_slice_header error
[h264 @ 0000000002645800] no frame!
[h264 @ 0000000002645800] non-existing PPS 0 referenced
Last message repeated 1 times
[h264 @ 0000000002645800] decode_slice_header error
[h264 @ 0000000002645800] no frame!
[h264 @ 0000000002645800] non-existing PPS 0 referenced
Last message repeated 1 times
[h264 @ 0000000002645800] decode_slice_header error
[h264 @ 0000000002645800] no frame!
[h264 @ 0000000002645800] non-existing PPS 0 referenced
Last message repeated 1 times
[h264 @ 0000000002645800] decode_slice_header error
[h264 @ 0000000002645800] no frame!
[h264 @ 0000000002645800] non-existing PPS 0 referenced
Last message repeated 1 times
[h264 @ 0000000002645800] decode_slice_header error
[h264 @ 0000000002645800] no frame!
[h264 @ 0000000002645800] non-existing PPS 0 referenced
Last message repeated 1 times
[h264 @ 0000000002645800] decode_slice_header error
[h264 @ 0000000002645800] no frame!
[h264 @ 0000000002645800] non-existing PPS 0 referenced
Last message repeated 1 times
[h264 @ 0000000002645800] decode_slice_header error
[h264 @ 0000000002645800] no frame!
[h264 @ 0000000002645800] non-existing PPS 0 referenced
Last message repeated 1 times
[h264 @ 0000000002645800] decode_slice_header error
[h264 @ 0000000002645800] no frame!
[h264 @ 0000000002645800] non-existing PPS 0 referenced
Last message repeated 1 times
[h264 @ 0000000002645800] decode_slice_header error
[h264 @ 0000000002645800] no frame!
[h264 @ 0000000002645800] non-existing PPS 0 referenced
Last message repeated 1 times
[h264 @ 0000000002645800] decode_slice_header error
[h264 @ 0000000002645800] no frame!
[h264 @ 0000000002645800] non-existing PPS 0 referenced
Last message repeated 1 times
[h264 @ 0000000002645800] decode_slice_header error
[h264 @ 0000000002645800] no frame!
[h264 @ 0000000002645800] non-existing PPS 0 referenced
Last message repeated 1 times
[h264 @ 0000000002645800] decode_slice_header error
[h264 @ 0000000002645800] no frame!
[h264 @ 0000000002645800] non-existing PPS 0 referenced
Last message repeated 1 times
[h264 @ 0000000002645800] decode_slice_header error
[h264 @ 0000000002645800] no frame!
[h264 @ 0000000002645800] non-existing PPS 0 referenced
Last message repeated 1 times
[h264 @ 0000000002645800] decode_slice_header error
[h264 @ 0000000002645800] no frame!
[h264 @ 0000000002645800] non-existing PPS 0 referenced
Last message repeated 1 times
[h264 @ 0000000002645800] decode_slice_header error
[h264 @ 0000000002645800] no frame!
[h264 @ 0000000002645800] non-existing PPS 0 referenced
Last message repeated 1 times
[h264 @ 0000000002645800] decode_slice_header error
[h264 @ 0000000002645800] no frame!
[h264 @ 0000000002645800] non-existing PPS 0 referenced
Last message repeated 1 times
[h264 @ 0000000002645800] decode_slice_header error
[h264 @ 0000000002645800] no frame!
[h264 @ 0000000002645800] non-existing PPS 0 referenced
Last message repeated 1 times
[h264 @ 0000000002645800] decode_slice_header error
[h264 @ 0000000002645800] no frame!
[h264 @ 0000000002645800] non-existing PPS 0 referenced
Last message repeated 1 times
[h264 @ 0000000002645800] decode_slice_header error
[h264 @ 0000000002645800] no frame!
[h264 @ 0000000002645800] non-existing PPS 0 referenced
Last message repeated 1 times
[h264 @ 0000000002645800] decode_slice_header error
[h264 @ 0000000002645800] no frame!
[h264 @ 0000000002645800] non-existing PPS 0 referenced
Last message repeated 1 times
[h264 @ 0000000002645800] decode_slice_header error
[h264 @ 0000000002645800] no frame!
[h264 @ 0000000002645800] non-existing PPS 0 referenced
Last message repeated 1 times
[h264 @ 0000000002645800] decode_slice_header error
[h264 @ 0000000002645800] no frame!
[h264 @ 0000000002645800] non-existing PPS 0 referenced
Last message repeated 1 times
[h264 @ 0000000002645800] decode_slice_header error
[h264 @ 0000000002645800] no frame!
[h264 @ 0000000002645800] non-existing PPS 0 referenced
Last message repeated 1 times
[h264 @ 0000000002645800] decode_slice_header error
[h264 @ 0000000002645800] no frame!
[h264 @ 0000000002645800] non-existing PPS 0 referenced
Last message repeated 1 times
[h264 @ 0000000002645800] decode_slice_header error
[h264 @ 0000000002645800] no frame!
Input #0, mpegts, from 'http://localhost:8902/tv.asf':
Duration: N/A, start: 18911.409700, bitrate: N/A
Program 1
Stream #0:0[0x44](spa): Audio: mp3 ([3][0][0][0] / 0x0003), 44100 Hz, stereo, s16p, 96 kb/s
Stream #0:1[0x45]: Video: h264 (High) ([27][0][0][0] / 0x001B), yuv420p(progressive), 1280x720 [SAR 1:1 DAR 16:9], 25 fps, 25 tbr, 90k tbn, 50 tbc
At least one output file must be specified

C:\Users>
___________________________________________________________________

It has been fast until "[h264 @ 0000000002645800] no frame!"
and then about 3-4 seconds to print (all together) the last 4-5 rows.
<<

barbablu

Serviio newbie

Posts: 5

Joined: Wed Sep 13, 2017 2:13 pm

Post Sun Oct 15, 2017 3:37 pm

Re: online directory disappeared

no chance to get an help? :-(

Return to Samsung

Who is online

Users browsing this forum: No registered users and 1 guest

Powered by phpBB © 2000, 2002, 2005, 2007 phpBB Group.
Designed by ST Software for PTF.