FAQ  •  Register  •  Login

New to Serviio MKV/VP9/Opus issue

<<

hazzanz

Serviio newbie

Posts: 3

Joined: Tue Apr 25, 2017 12:18 am

Post Tue Apr 25, 2017 12:59 am

New to Serviio MKV/VP9/Opus issue

Hi, I downloaded and installed this a few days ago and have successfully got it running - up to a point! ;)

Movies mostly play fine but I have a few Music Videos that I am struggling with. After a few hours of reading here (and feeling like me head is going to explode :? ) I have gathered some info to see if anyone can help me:

Serviio Server

Windows Server 2012 Standard
16GB RAM
2 TB HDD

TV's

Sony Bravia KDL-65W850A (2013/14)
Samsung UA40J5500 (J Series)


FFMPEG Results

C:\Program Files\Serviio\lib>ffmpeg.exe -i "E:\Media\Music Videos\Adele - Send M
y Love (To Your New Lover) - 1080.mkv"
ffmpeg version 3.0.2 Copyright (c) 2000-2016 the FFmpeg developers
built with gcc 4.9.3 (GCC)
configuration: --enable-static --disable-shared --disable-ffplay --disable-ffs
erver --enable-memalign-hack --enable-libmp3lame --enable-libass --enable-librtm
p --enable-fontconfig --enable-libfreetype --enable-zlib --enable-libx264 --enab
le-libspeex --extra-libs='-lrtmp -lpolarssl -lws2_32 -lwinmm -lexpat -lfreetype
-lfribidi -lz' --arch=x86 --enable-runtime-cpudetect --enable-pthreads --target-
os=mingw32 --cross-prefix=i686-w64-mingw32- --enable-gpl --pkg-config=pkg-config
--bindir='/jenkins/workspace/FFmpeg - Win32/target'
libavutil 55. 17.103 / 55. 17.103
libavcodec 57. 24.102 / 57. 24.102
libavformat 57. 25.100 / 57. 25.100
libavdevice 57. 0.101 / 57. 0.101
libavfilter 6. 31.100 / 6. 31.100
libswscale 4. 0.100 / 4. 0.100
libswresample 2. 0.101 / 2. 0.101
libpostproc 54. 0.100 / 54. 0.100
Input #0, matroska,webm, from 'E:\Media\Music Videos\Adele - Send My Love (To Yo
ur New Lover) - YouTube - 1080.mkv':
Metadata:
COMPATIBLE_BRANDS: isomiso2avc1mp41
MAJOR_BRAND : isom
MINOR_VERSION : 512
ENCODER : IDMmkvlib0.1
LANGUAGE : und
HANDLER_NAME : AudioHandler
Duration: 00:03:45.00, start: 0.000000, bitrate: 2703 kb/s
Stream #0:0: Video: vp9 (Profile 0), yuv420p(tv, bt709/unknown/unknown), 192
0x1080, SAR 1:1 DAR 16:9, 25 fps, 25 tbr, 1k tbn, 1k tbc (default)
Stream #0:1: Audio: opus, 48000 Hz, stereo, fltp (default)
At least one output file must be specified

C:\Program Files\Serviio\lib>

MediaInfo Results

General
Unique ID : 65392825175610104412735799271089255734 (0x31323334353637383930313233343536)
Complete name : \\nas\e$\Media\Music Videos\Adele - Send My Love (To Your New Lover) - 1080.MKV
Format : Matroska
Format version : Version 4 / Version 2
File size : 72.5 MiB
Duration : 3 min 45 s
Overall bit rate : 2 704 kb/s
Writing application : IDMmkvlib0.1
Writing library : IDMmkvlib0.1
HANDLER_NAME : AudioHandler
Language : und

Video
ID : 1
Format : VP9
Codec ID : V_VP9
Duration : 3 min 45 s
Width : 1 920 pixels
Height : 1 080 pixels
Display aspect ratio : 16:9
Frame rate mode : Constant
Frame rate : 25.000 FPS
Default : Yes
Forced : No

Audio
ID : 2
Format : Opus
Codec ID : A_OPUS
Duration : 3 min 45 s
Channel(s) : 2 channels
Channel positions : Front: L R
Sampling rate : 48.0 kHz
Bit depth : bit0
Compression mode : Lossy
Default : Yes
Forced : No

Any help would be greatly appreciated

Cheers

Harry
<<

zip

User avatar

Serviio developer / Site Admin

Posts: 16334

Joined: Sat Oct 24, 2009 12:24 pm

Location: London, UK

Post Tue Apr 25, 2017 7:53 am

Re: New to Serviio MKV/VP9/Opus issue

can you post ffmpeg -i for the file? I'm suspecting the audio codec is not supported.
<<

hazzanz

Serviio newbie

Posts: 3

Joined: Tue Apr 25, 2017 12:18 am

Post Tue Apr 25, 2017 10:20 am

Re: New to Serviio MKV/VP9/Opus issue

Hi, is that not what I posted under the heading "FFMPEG Results"? If that is not the correct result can you please provide further guidance on how to run the command as that is the result I got as I (admittedly, very confusingly) ran the command. I was concerned about the last line "At least one output file must be specified".
Can you please check my syntax for running the command?

Cheers

Harry
<<

hazzanz

Serviio newbie

Posts: 3

Joined: Tue Apr 25, 2017 12:18 am

Post Thu Apr 27, 2017 10:47 am

Re: New to Serviio MKV/VP9/Opus issue

Hi Zip,
Any chance of any further assistance?

When I ran the FFMPEG -i command this is what I got

FFMPEG Results

C:\Program Files\Serviio\lib>ffmpeg.exe -i "E:\Media\Music Videos\Adele - Send M
y Love (To Your New Lover) - 1080.mkv"
ffmpeg version 3.0.2 Copyright (c) 2000-2016 the FFmpeg developers
built with gcc 4.9.3 (GCC)
configuration: --enable-static --disable-shared --disable-ffplay --disable-ffs
erver --enable-memalign-hack --enable-libmp3lame --enable-libass --enable-librtm
p --enable-fontconfig --enable-libfreetype --enable-zlib --enable-libx264 --enab
le-libspeex --extra-libs='-lrtmp -lpolarssl -lws2_32 -lwinmm -lexpat -lfreetype
-lfribidi -lz' --arch=x86 --enable-runtime-cpudetect --enable-pthreads --target-
os=mingw32 --cross-prefix=i686-w64-mingw32- --enable-gpl --pkg-config=pkg-config
--bindir='/jenkins/workspace/FFmpeg - Win32/target'
libavutil 55. 17.103 / 55. 17.103
libavcodec 57. 24.102 / 57. 24.102
libavformat 57. 25.100 / 57. 25.100
libavdevice 57. 0.101 / 57. 0.101
libavfilter 6. 31.100 / 6. 31.100
libswscale 4. 0.100 / 4. 0.100
libswresample 2. 0.101 / 2. 0.101
libpostproc 54. 0.100 / 54. 0.100
Input #0, matroska,webm, from 'E:\Media\Music Videos\Adele - Send My Love (To Yo
ur New Lover) - YouTube - 1080.mkv':
Metadata:
COMPATIBLE_BRANDS: isomiso2avc1mp41
MAJOR_BRAND : isom
MINOR_VERSION : 512
ENCODER : IDMmkvlib0.1
LANGUAGE : und
HANDLER_NAME : AudioHandler
Duration: 00:03:45.00, start: 0.000000, bitrate: 2703 kb/s
Stream #0:0: Video: vp9 (Profile 0), yuv420p(tv, bt709/unknown/unknown), 192
0x1080, SAR 1:1 DAR 16:9, 25 fps, 25 tbr, 1k tbn, 1k tbc (default)
Stream #0:1: Audio: opus, 48000 Hz, stereo, fltp (default)
At least one output file must be specified

Cheers

Harry

Return to Sony

Who is online

Users browsing this forum: No registered users and 1 guest

Powered by phpBB © 2000, 2002, 2005, 2007 phpBB Group.
Designed by ST Software for PTF.