FAQ  •  Register  •  Login

Sony BDPS790

<<

dmdfs

Serviio newbie

Posts: 3

Joined: Sun Jan 14, 2018 1:39 pm

Post Sun Jan 14, 2018 3:21 pm

Sony BDPS790

I have MKVs of Blurays, HD DVDs and DVDs. Used Handbrake to change the HD DVD MKV audio from EAC3. Now the Bluray and handbraked HD DVD mkvs play without any problem or any transcoding using the Sony BDPSx90 profile, but MKvs from DVDs do not play - the come up with an error - file corrupted/not supported. (They do however play fine on my BDPs6500 in another room (Generic profile without any dificulty, so the files aren't corrupted). If I switch to the the Sony BDPSx70/SMP 100 (2010) profile the DVDs play (transcoded to M2TS) but it also then tries to play the Bluray and HD DVDs by transcoding them too, which the causes them to stutter very badly. Any suggestions other than using one profile for DVDs and one for anything HD or putting all of my DVD MKVs through Handbrake?
<<

DenyAll

DLNA master

Posts: 2142

Joined: Fri Mar 08, 2013 11:16 pm

Location: Adelaide, Australia

Post Tue Jan 16, 2018 9:45 am

Re: Sony BDPS790

You'd have to work out why the non HD files are not liked when played natively (suspect it is the audio). Post MediaInfo for a file that works (HD) and one that is rejected (other).
DenyAll
Panasonic Viera CS610A | Panasonic Viera V20A | Sony PS4 | Sony PS3 | Panasonic DMP-BD79 | Yamaha RX-V500D | iPad | Windows 10 | Serviio 1.9 Pro
WinHelper | MediaInfo

Beta Tester, Moderator
Please do not PM me for support as any solution cannot be shared with others.
<<

dmdfs

Serviio newbie

Posts: 3

Joined: Sun Jan 14, 2018 1:39 pm

Post Tue Jan 16, 2018 8:37 pm

Re: Sony BDPS790

Thank you very much for your help Denyall, it is very much appreciated. Info from Mediainfo attached. First is the HD which works fine with the BDP sX90 (2012) profile and the second is the SD which gives the message that the file is corrupt or unsupported. (First time I have done this, so hope I have posted them correctly).
Thank you.
  Code:
General
Unique ID                                : 102660811621179528171300803543366221261 (0x4D3BC0CC944E43A44EAB467DB251BDCD)
Complete name                            : I:\Films\LAST_VEGAS.mkv
Format                                   : Matroska
Format version                           : Version 2
File size                                : 26.2 GiB
Duration                                 : 1 h 45 min
Overall bit rate mode                    : Variable
Overall bit rate                         : 35.6 Mb/s
Movie name                               : LAST VEGAS
Encoded date                             : UTC 2017-05-20 21:38:21
Writing application                      : MakeMKV v1.10.5 win(x64-release)
Writing library                          : libmakemkv v1.10.5 (1.3.3/1.4.4) win(x64-release)

Video
ID                                       : 1
ID in the original source medium         : 4113 (0x1011)
Format                                   : AVC
Format/Info                              : Advanced Video Codec
Format profile                           : High@L4.1
Format settings                          : CABAC / 2 Ref Frames
Format settings, CABAC                   : Yes
Format settings, RefFrames               : 2 frames
Codec ID                                 : V_MPEG4/ISO/AVC
Duration                                 : 1 h 45 min
Bit rate mode                            : Variable
Bit rate                                 : 33.9 Mb/s
Width                                    : 1 920 pixels
Height                                   : 1 080 pixels
Display aspect ratio                     : 16:9
Frame rate mode                          : Constant
Frame rate                               : 23.976 (24000/1001) FPS
Color space                              : YUV
Chroma subsampling                       : 4:2:0
Bit depth                                : 8 bits
Scan type                                : Progressive
Bits/(Pixel*Frame)                       : 0.683
Stream size                              : 25.0 GiB (95%)
Language                                 : English
Default                                  : No
Forced                                   : No
Original source medium                   : Blu-ray

Audio
ID                                       : 2
ID in the original source medium         : 4352 (0x1100)
Format                                   : DTS
Format/Info                              : Digital Theater Systems
Codec ID                                 : A_DTS
Duration                                 : 1 h 45 min
Bit rate mode                            : Constant
Bit rate                                 : 1 509 kb/s
Channel(s)                               : 6 channels
Channel positions                        : Front: L C R, Side: L R, LFE
Sampling rate                            : 48.0 kHz
Frame rate                               : 93.750 FPS (512 SPF)
Bit depth                                : 24 bits
Compression mode                         : Lossy
Stream size                              : 1.11 GiB (4%)
Title                                    : Surround 5.1
Language                                 : English
Default                                  : Yes
Forced                                   : No
Original source medium                   : Blu-ray

Text #1
ID                                       : 3
ID in the original source medium         : 4608 (0x1200)
Format                                   : PGS
Codec ID                                 : S_HDMV/PGS
Codec ID/Info                            : Picture based subtitle format used on BDs/HD-DVDs
Duration                                 : 1 h 40 min
Bit rate                                 : 52.1 kb/s
Count of elements                        : 3951
Stream size                              : 37.5 MiB (0%)
Language                                 : English
Default                                  : No
Forced                                   : No
Original source medium                   : Blu-ray

Text #2
ID                                       : 5
ID in the original source medium         : 4622 (0x120E)
Format                                   : PGS
Codec ID                                 : S_HDMV/PGS
Codec ID/Info                            : Picture based subtitle format used on BDs/HD-DVDs
Duration                                 : 1 h 41 min
Bit rate                                 : 84.8 kb/s
Count of elements                        : 3872
Stream size                              : 61.4 MiB (0%)
Language                                 : English
Default                                  : No
Forced                                   : No
Original source medium                   : Blu-ray

Menu
00:00:00.000                             : en:Chapter 01
00:10:49.106                             : en:Chapter 02
00:18:05.084                             : en:Chapter 03
00:21:24.700                             : en:Chapter 04
00:25:12.302                             : en:Chapter 05
00:31:00.733                             : en:Chapter 06
00:36:26.851                             : en:Chapter 07
00:41:53.886                             : en:Chapter 08
00:46:14.354                             : en:Chapter 09
00:54:12.457                             : en:Chapter 10
00:59:52.797                             : en:Chapter 11
01:05:46.943                             : en:Chapter 12
01:10:35.731                             : en:Chapter 13
01:14:56.700                             : en:Chapter 14
01:18:30.330                             : en:Chapter 15
01:21:47.110                             : en:Chapter 16
01:26:33.813                             : en:Chapter 17
01:32:27.667                             : en:Chapter 18
01:37:18.999                             : en:Chapter 19
01:41:14.902                             : en:Chapter 20


  Code:
General
Unique ID                                : 263311257807583868408839260882121182906 (0xC617E75306096A4988CBD4763D96CEBA)
Complete name                            : I:\Films\Master and Commander.mkv
Format                                   : Matroska
Format version                           : Version 2
File size                                : 6.06 GiB
Duration                                 : 2 h 12 min
Overall bit rate mode                    : Variable
Overall bit rate                         : 6 536 kb/s
Encoded date                             : UTC 2018-01-14 12:33:13
Writing application                      : MakeMKV v1.10.9 win(x64-release)
Writing library                          : libmakemkv v1.10.9 (1.3.5/1.4.7) win(x64-release)

Video
ID                                       : 1
ID in the original source medium         : 224 (0xE0)
Format                                   : MPEG Video
Format version                           : Version 2
Format profile                           : Main@Main
Format settings                          : CustomMatrix / BVOP
Format settings, BVOP                    : Yes
Format settings, Matrix                  : Custom
Format settings, GOP                     : Variable
Codec ID                                 : V_MPEG2
Codec ID/Info                            : MPEG 1 or 2 Video
Duration                                 : 2 h 12 min
Bit rate mode                            : Variable
Bit rate                                 : 5 324 kb/s
Maximum bit rate                         : 9 800 kb/s
Width                                    : 720 pixels
Height                                   : 576 pixels
Display aspect ratio                     : 16:9
Frame rate mode                          : Constant
Frame rate                               : 25.000 FPS
Standard                                 : Component
Color space                              : YUV
Chroma subsampling                       : 4:2:0
Bit depth                                : 8 bits
Scan type                                : Progressive
Scan order                               : Top Field First
Compression mode                         : Lossy
Bits/(Pixel*Frame)                       : 0.514
Time code of first frame                 : 01:00:00:00
Time code source                         : Group of pictures header
Stream size                              : 4.93 GiB (81%)
Language                                 : English
Default                                  : No
Forced                                   : No
Color primaries                          : BT.601 PAL
Transfer characteristics                 : BT.470 System B, BT.470 System G
Matrix coefficients                      : BT.470 System B, BT.470 System G
Original source medium                   : DVD-Video

Audio #1
ID                                       : 2
ID in the original source medium         : 189 (0xBD)128 (0x80)
Format                                   : AC-3
Format/Info                              : Audio Coding 3
Codec ID                                 : A_AC3
Duration                                 : 2 h 12 min
Bit rate mode                            : Constant
Bit rate                                 : 448 kb/s
Channel(s)                               : 6 channels
Channel positions                        : Front: L C R, Side: L R, LFE
Sampling rate                            : 48.0 kHz
Frame rate                               : 31.250 FPS (1536 SPF)
Bit depth                                : 16 bits
Compression mode                         : Lossy
Stream size                              : 425 MiB (7%)
Title                                    : Surround 5.1
Language                                 : English
Service kind                             : Complete Main
Default                                  : Yes
Forced                                   : No
Original source medium                   : DVD-Video

Audio #2
ID                                       : 3
ID in the original source medium         : 189 (0xBD)137 (0x89)
Format                                   : DTS
Format/Info                              : Digital Theater Systems
Codec ID                                 : A_DTS
Duration                                 : 2 h 12 min
Bit rate mode                            : Constant
Bit rate                                 : 755 kb/s
Channel(s)                               : 6 channels
Channel positions                        : Front: L C R, Side: L R, LFE
Sampling rate                            : 48.0 kHz
Frame rate                               : 93.750 FPS (512 SPF)
Bit depth                                : 16 bits
Compression mode                         : Lossy
Stream size                              : 716 MiB (12%)
Title                                    : Surround 5.1
Language                                 : English
Default                                  : No
Forced                                   : No
Original source medium                   : DVD-Video

Text
ID                                       : 4
ID in the original source medium         : 189 (0xBD)32 (0x20)
Format                                   : VobSub
Codec ID                                 : S_VOBSUB
Codec ID/Info                            : Picture based subtitle format used on DVDs
Duration                                 : 2 h 8 min
Bit rate                                 : 3 758 b/s
Count of elements                        : 1133
Stream size                              : 3.46 MiB (0%)
Language                                 : English
Default                                  : Yes
Forced                                   : No
Original source medium                   : DVD-Video

Menu
00:00:00.000                             : en:Chapter 01
00:01:57.000                             : en:Chapter 02
00:03:48.000                             : en:Chapter 03
00:07:58.800                             : en:Chapter 04
00:12:09.680                             : en:Chapter 05
00:14:40.320                             : en:Chapter 06
00:17:29.240                             : en:Chapter 07
00:19:33.600                             : en:Chapter 08
00:25:19.720                             : en:Chapter 09
00:26:56.640                             : en:Chapter 10
00:30:17.520                             : en:Chapter 11
00:35:26.520                             : en:Chapter 12
00:38:14.720                             : en:Chapter 13
00:43:59.280                             : en:Chapter 14
00:47:32.840                             : en:Chapter 15
00:52:26.600                             : en:Chapter 16
00:55:53.360                             : en:Chapter 17
01:00:05.760                             : en:Chapter 18
01:02:00.200                             : en:Chapter 19
01:03:40.160                             : en:Chapter 20
01:06:27.240                             : en:Chapter 21
01:08:59.280                             : en:Chapter 22
01:10:55.640                             : en:Chapter 23
01:15:57.240                             : en:Chapter 24
01:22:44.200                             : en:Chapter 25
01:26:27.680                             : en:Chapter 26
01:29:41.200                             : en:Chapter 27
01:34:02.280                             : en:Chapter 28
01:36:16.200                             : en:Chapter 29
01:40:17.760                             : en:Chapter 30
01:43:49.040                             : en:Chapter 31
01:52:29.840                             : en:Chapter 32
01:54:22.080                             : en:Chapter 33
01:58:37.040                             : en:Chapter 34
02:00:20.200                             : en:Chapter 35
02:03:26.800                             : en:Chapter 36

<<

DenyAll

DLNA master

Posts: 2142

Joined: Fri Mar 08, 2013 11:16 pm

Location: Adelaide, Australia

Post Fri Jan 19, 2018 11:57 am

Re: Sony BDPS790

The 2nd file is a little unusual (nothing wrong with it - just don't see too many MKV files with mpeg2 video). Try this:

  • Edit the file config\profiles.xml using your favourite text editor (Notepad++ recommended)
  • find the line
    <Matches container="matroska" aCodec="truehd" />
    in the Sony BDP-Sx90 (2012) profile.
  • Add a line above that line and type
    <Matches container="matroska" vCodec="mpeg2video" />
  • Save the file
  • Restart your PC

This re-wraps the mpeg2 video in an mpeg2 container, which is a little more common and probably what your device prefers. It is also what is happening in the Sx70 profile. Re-wrapping (re-muxing) is a non-destructive process so you will not see any quality reduction in the video.

If it doesn't work, revert the changes and let me know. You will need to make this change every time Serviio is upgraded (there is another way to do this so that the change isn't lost on upgrades, but one step at a time).
DenyAll
Panasonic Viera CS610A | Panasonic Viera V20A | Sony PS4 | Sony PS3 | Panasonic DMP-BD79 | Yamaha RX-V500D | iPad | Windows 10 | Serviio 1.9 Pro
WinHelper | MediaInfo

Beta Tester, Moderator
Please do not PM me for support as any solution cannot be shared with others.
<<

dmdfs

Serviio newbie

Posts: 3

Joined: Sun Jan 14, 2018 1:39 pm

Post Fri Jan 19, 2018 5:39 pm

Re: Sony BDPS790

Many thanks DenyAll, it worked perfectly.

Return to Sony

Who is online

Users browsing this forum: No registered users and 2 guests

Powered by phpBB © 2000, 2002, 2005, 2007 phpBB Group.
Designed by ST Software for PTF.