FAQ  •  Register  •  Login

Invalid file - LG 42LM5800 - Quicktime file

<<

doodle

Serviio newbie

Posts: 1

Joined: Sun Aug 25, 2013 5:32 pm

Post Sun Aug 25, 2013 5:43 pm

Invalid file - LG 42LM5800 - Quicktime file

Serviio has been working perfectly with all my files.

But now I found a format that is being a pain: two .mov files.

Here are the ffmpeg details:
  Code:
C:\Program Files\Serviio\lib>ffmpeg.exe -i "C:\Files\Downloads\video.mov"
ffmpeg version N-54096-ge41bf19 Copyright (c) 2000-2013 the FFmpeg developers
  built on Jun 18 2013 10:49:28 with gcc 4.7.2 (GCC)
  configuration: --enable-static --disable-shared --disable-ffplay --disable-ffs
erver --enable-memalign-hack --enable-libmp3lame --enable-libass --enable-librtm
p --enable-fontconfig --enable-libfreetype --enable-zlib --enable-libx264 --extr
a-libs='-lrtmp -lpolarssl -lws2_32 -lwinmm -lexpat -lfreetype -lfribidi -lz' --a
rch=x86 --enable-runtime-cpudetect --enable-pthreads --target-os=mingw32 --cross
-prefix=i686-w64-mingw32- --enable-gpl --pkg-config=pkg-config
  libavutil      52. 37.101 / 52. 37.101
  libavcodec     55. 16.100 / 55. 16.100
  libavformat    55.  9.100 / 55.  9.100
  libavdevice    55.  2.100 / 55.  2.100
  libavfilter     3. 77.101 /  3. 77.101
  libswscale      2.  3.100 /  2.  3.100
  libswresample   0. 17.102 /  0. 17.102
  libpostproc    52.  3.100 / 52.  3.100
Input #0, mov,mp4,m4a,3gp,3g2,mj2, from 'C:\Files\Downloads\video.mov':
  Metadata:
    major_brand     : qt
    minor_version   : 537199360
    compatible_brands: qt
    creation_time   : 2011-08-26 16:53:58
    timecode        : 01:00:00:00
  Duration: 00:07:33.92, start: 0.000000, bitrate: 4183 kb/s
    Stream #0:0(eng): Video: h264 (Main) (avc1 / 0x31637661), yuv420p, 1280x720,
 4052 kb/s, 25 fps, 25 tbr, 2500 tbn, 5k tbc
    Metadata:
      creation_time   : 2011-08-26 16:53:58
      handler_name    : Gestor de contenido de vÆdeo Apple
    Stream #0:1(eng): Audio: aac (mp4a / 0x6134706D), 48000 Hz, stereo, fltp, 12
9 kb/s
    Metadata:
      creation_time   : 2011-08-26 16:53:58
      handler_name    : Gestor de contenido de sonido Apple
    Stream #0:2(eng): Data: none (tmcd / 0x64636D74)
    Metadata:
      creation_time   : 2011-08-26 16:53:58
      handler_name    : Gestor de cùdigos de tiempo
      timecode        : 01:00:00:00
At least one output file must be specified


And here, the MediaInfo details:
  Code:
General
Complete name                            : C:\Files\Downloads\video.mov
Format                                   : MPEG-4
Format profile                           : QuickTime
Format settings                          : Compressed header
Codec ID                                 : qt 
File size                                : 226 MiB
Duration                                 : 7mn 33s
Overall bit rate                         : 4 184 Kbps
Encoded date                             : UTC 2011-08-26 16:53:58
Tagged date                              : UTC 2011-08-26 16:54:13
Writing library                          : Apple QuickTime
Media/UUID                               : 3624D2A8-0A52-42D8-AA23-8C394255EC4C
Media/History/UUID                       : FF0BD8F7-370C-4717-BAE3-4884E620878D

Video
ID                                       : 1
Format                                   : AVC
Format/Info                              : Advanced Video Codec
Format profile                           : Main@L3.1
Format settings, CABAC                   : No
Format settings, ReFrames                : 2 frames
Codec ID                                 : avc1
Codec ID/Info                            : Advanced Video Coding
Duration                                 : 7mn 33s
Bit rate                                 : 4 053 Kbps
Width                                    : 1 248 pixels
Original width                           : 1 280 pixels
Height                                   : 702 pixels
Original height                          : 720 pixels
Display aspect ratio                     : 16:9
Frame rate mode                          : Constant
Frame rate                               : 25.000 fps
Color space                              : YUV
Chroma subsampling                       : 4:2:0
Bit depth                                : 8 bits
Scan type                                : Progressive
Bits/(Pixel*Frame)                       : 0.185
Stream size                              : 219 MiB (97%)
Title                                    : Gestor de contenido de v’deo Apple
Language                                 : English
Encoded date                             : UTC 2011-08-26 16:53:57
Tagged date                              : UTC 2011-08-26 16:54:13
Color primaries                          : BT.709
Transfer characteristics                 : BT.709
Matrix coefficients                      : BT.709

Audio
ID                                       : 2
Format                                   : AAC
Format/Info                              : Advanced Audio Codec
Format profile                           : LC
Codec ID                                 : 40
Duration                                 : 7mn 33s
Source duration                          : 7mn 33s
Bit rate mode                            : Constant
Bit rate                                 : 128 Kbps
Channel(s)                               : 2 channels
Channel positions                        : Front: L R
Sampling rate                            : 48.0 KHz
Compression mode                         : Lossy
Stream size                              : 6.99 MiB (3%)
Source stream size                       : 6.99 MiB (3%)
Title                                    : Gestor de contenido de sonido Apple
Language                                 : English
Encoded date                             : UTC 2011-08-26 16:53:57
Tagged date                              : UTC 2011-08-26 16:54:13

Other
ID                                       : 3
Type                                     : Time code
Format                                   : QuickTime TC
Duration                                 : 7mn 33s
Time code of first frame                 : 01:00:00:00
Time code settings                       : Striped
Title                                    : Gestor de c—digos de tiempo
Language                                 : English
Encoded date                             : UTC 2011-08-26 16:53:57
Tagged date                              : UTC 2011-08-26 16:54:14



OS: Windows 7
TV: LG 42LM5800

Any help is appreciated!
Thanks!
<<

zip

User avatar

Serviio developer / Site Admin

Posts: 16806

Joined: Sat Oct 24, 2009 12:24 pm

Location: London, UK

Post Mon Aug 26, 2013 12:26 pm

Re: Invalid file - LG 42LM5800 - Quicktime file

MIght be the compressed headers.

Try to remux the files again using some tool

Return to LG

Who is online

Users browsing this forum: No registered users and 2 guests

Powered by phpBB © 2000, 2002, 2005, 2007 phpBB Group.
Designed by ST Software for PTF.