FAQ  •  Register  •  Login

LG choking on high-resolution MPGs

<<

kot

User avatar

DLNA master

Posts: 104

Joined: Sat Jan 08, 2011 5:36 pm

Post Sun Apr 03, 2011 4:24 pm

LG choking on high-resolution MPGs

Hello!

All our video-recordings are saved as MPG-files with 1440x1080 resolution. The Sony TV plays them nicely, but the LG begins to choke after the first few seconds. I don't think, this is Serviio's problem (it was the same, when I was using minidlna), but I wonder, if Serviio can offer some work-around -- like transcoding these into something, that's easier for the TV to chew...

Here is one such file:
  Code:
General
ID                               : FF
Complete name                    : /green/Alaska-videos/tape1.mpg
Format                           : MPEG-TS
File size                        : 6.41 GiB
Duration                         : 35mn 7s
Start time                       : UTC 2007-08-31 13:33:15
Overall bit rate                 : 26.1 Mbps
Maximum Overall bit rate         : 33.0 Mbps
Encoded date                     : UTC 2007-08-31 13:33:15

Video
ID                               : 2064 (0x810)
Menu ID                          : 100 (0x64)
Format                           : MPEG Video
Format version                   : Version 2
Format profile                   : Main@High 1440
Format settings, BVOP            : Yes
Format settings, Matrix          : Default
Format settings, GOP             : M=3, N=15
Codec ID                         : 2
Duration                         : 35mn 7s
Bit rate mode                    : Constant
Bit rate                         : 25.0 Mbps
Width                            : 1 440 pixels
Height                           : 1 080 pixels
Display aspect ratio             : 16:9
Frame rate                       : 29.970 fps
Standard                         : Component
Color space                      : YUV
Chroma subsampling               : 4:2:0
Bit depth                        : 8 bits
Scan type                        : Interlaced
Scan order                       : Top Field First
Bits/(Pixel*Frame)               : 0.536
Stream size                      : 6.00 GiB (94%)

Audio
ID                               : 2068 (0x814)
Menu ID                          : 100 (0x64)
Format                           : MPEG Audio
Format version                   : Version 1
Format profile                   : Layer 2
Codec ID                         : 3
Duration                         : 35mn 7s
Bit rate mode                    : Constant
Bit rate                         : 384 Kbps
Channel(s)                       : 2 channels
Sampling rate                    : 48.0 KHz
Stream size                      : 96.5 MiB (1%)
FreeBSD port of Serviio is now in the tree. Please, try using it and share your experience.
<<

zip

User avatar

Serviio developer / Site Admin

Posts: 16858

Joined: Sat Oct 24, 2009 12:24 pm

Location: London, UK

Post Sun Apr 03, 2011 5:07 pm

Re: LG choking on high-resolution MPGs

LG's software has a bug that virtually disables any transcoding, unfortunatelly - at least with Serviio.

More: viewtopic.php?f=12&t=546&start=40#p11160

Return to LG

Who is online

Users browsing this forum: No registered users and 1 guest

Powered by phpBB © 2000, 2002, 2005, 2007 phpBB Group.
Designed by ST Software for PTF.