FAQ  •  Register  •  Login

2013 Viera E6 series and .vob files

<<

grolschie

DLNA master

Posts: 695

Joined: Tue Jun 28, 2011 4:02 am

Post Tue Mar 10, 2015 8:04 am

2013 Viera E6 series and .vob files

Hello,

I have some .vob files (NTSC DVD rip with DTS audio). They play sweet with bitstreamed audio on my Sony BDP-S370 via Serviio, but with the Panasonic Viera they won't play. No error message, they just skip to the next file after trying for a bit. I presume I need to modify the profile. MKV files with DTS play ok on my TV. Any ideas on how vob files should be handled please? Thanks.

  Code:
Input #0, mpeg, from vts_01_01.vob':
  Duration: 00:01:55.52, start: 0.280633, bitrate: 5155 kb/s
    Stream #0:0[0x1e0]: Video: mpeg2video (Main), yuv420p(tv, smpte170m), 720x480 [SAR 8:9 DAR 4:3], max. 6000 kb/s, 29.97 fps, 29.97 tbr, 90k tbn, 59.94 tbc
    Stream #0:1[0x8a]: Audio: dts (DTS), 48000 Hz, 5.1(side), fltp, 1536 kb/s
Using Serviio on Debian "Wheezy" with Xbox 360, Sony BDP-S370 & Panasonic E6.
<<

grolschie

DLNA master

Posts: 695

Joined: Tue Jun 28, 2011 4:02 am

Post Thu Mar 12, 2015 5:15 am

Re: 2013 Viera E6 series and .vob files

With this TV I will need to re-encode the files to .mkv with h.264 video it would seem.
Using Serviio on Debian "Wheezy" with Xbox 360, Sony BDP-S370 & Panasonic E6.

Return to Panasonic

Who is online

Users browsing this forum: No registered users and 1 guest

cron
Powered by phpBB © 2000, 2002, 2005, 2007 phpBB Group.
Designed by ST Software for PTF.