FAQ  •  Register  •  Login

Best Profile 2013 VT60

<<

mjb_i

Serviio newbie

Posts: 18

Joined: Thu Feb 06, 2014 2:38 pm

Post Tue Mar 24, 2015 8:51 pm

Best Profile 2013 VT60

With your recent releases, you have two profiles that can apply to my Panasonic Viera. I have a 2013 plasma VT60. Which is the more appropriate profile, the Panasonic 2013, or the older one which highlights the VT? I have not had problems with video and audio, for the most part, but just encountered a video problem on one movie.
<<

DenyAll

DLNA master

Posts: 2187

Joined: Fri Mar 08, 2013 11:16 pm

Location: Adelaide, Australia

Post Wed Mar 25, 2015 1:13 pm

Re: Best Profile 2013 VT60

While there are no hard and fast rules, and models do vary from one country to another the following is a guide:

  • The Panasonic Viera 2013 profile is designed for all 60 series: Plasma's: ZT60, VT60, ST60, GT60, S60 and LED/LCD's: WT60, DT60, ET60, FT60, E6.
  • The Panasonic Viera G/GT/DT/UT/VT (2011/2012) profile is designed for all 50 series Vieras and some 30 series. It adds a bit more transcoding to the 2013 profile for those TV's that do not support particular file formats (the main two of note is MP4 files with H264 video and AAC audio, and MKV files with DTS audio).
  • The Panasonic Viera E/S/ST/VT (2011) profile is exactly the same as the 2011/12 profile except it transcodes AVI files. Designed for the remainder of the 30 series and the E50 that does not play AVI files natively;
  • The Panasonic Viera (2010) profile is exactly the same as the 2011/12 profile except it transcodes all MKV files. Designed for the 20 series TV's that does not play MKV files natively (also transcodes a few audio types).
Have a read of viewtopic.php?f=13&t=12367&start=80#p86472 for further information and the spreadsheet in that post.
DenyAll
Panasonic Viera FX800A | Panasonic Viera CS610A | Sony PS4 | Sony PS3 | Panasonic DMP-BD79 | Yamaha RX-V500D | iPad | Windows 10 | Serviio 1.10 Pro
WinHelper | MediaInfo

Beta Tester, Moderator
Please do not PM me for support as any solution cannot be shared with others.
<<

mjb_i

Serviio newbie

Posts: 18

Joined: Thu Feb 06, 2014 2:38 pm

Post Wed Mar 25, 2015 8:46 pm

Re: Best Profile 2013 VT60

I have it set to the 2013 profile. All my videos appear to be playing fine except for one. The Media Info is below. I have full sound, but the video is absent. As always, your help is appreciated.

General
Unique ID : 170914321873397776210535604183314155457 (0x8094E6AAB14A82529E019198F8AF47C1)
Complete name : \\IE-SERVER2008\My Videos\Lawrence of Arabia 1962 BDRip 1080p DTS multisub HighCode-PHD.mkv
Format : Matroska
Format version : Version 2
File size : 9.93 GiB
Duration : 3h 47mn
Overall bit rate : 6 260 Kbps
Encoded date : UTC 2012-09-17 12:33:17
Writing application : mkvmerge v4.8.0 ('I Got The...') built on May 24 2011 03:12:58
Writing library : libebml v1.2.0 + libmatroska v1.1.0

Video
ID : 1
Format : AVC
Format/Info : Advanced Video Codec
Format profile : High@L5.0
Format settings, CABAC : Yes
Format settings, ReFrames : 6 frames
Muxing mode : Header stripping
Codec ID : V_MPEG4/ISO/AVC
Duration : 3h 47mn
Bit rate : 5 500 Kbps
Width : 1 920 pixels
Height : 880 pixels
Display aspect ratio : 2.2:1
Frame rate mode : Constant
Frame rate : 23.976 fps
Color space : YUV
Chroma subsampling : 4:2:0
Bit depth : 8 bits
Scan type : Progressive
Bits/(Pixel*Frame) : 0.136
Stream size : 8.53 GiB (86%)
Title : Lawrence of Arabia 1962 BDRip 1080p DTS multisub HighCode-PHD
Writing library : x264 core 120
Encoding settings : cabac=1 / ref=6 / deblock=1:-3:-3 / analyse=0x3:0x133 / me=umh / subme=10 / psy=1 / psy_rd=0.80:0.00 / mixed_ref=1 / me_range=64 / chroma_me=1 / trellis=2 / 8x8dct=1 / cqm=0 / deadzone=21,11 / fast_pskip=1 / chroma_qp_offset=-2 / threads=12 / sliced_threads=0 / nr=0 / decimate=1 / interlaced=0 / bluray_compat=0 / constrained_intra=0 / bframes=8 / b_pyramid=2 / b_adapt=2 / b_bias=0 / direct=3 / weightb=1 / open_gop=0 / weightp=2 / keyint=240 / keyint_min=24 / scenecut=40 / intra_refresh=0 / rc_lookahead=120 / rc=2pass / mbtree=1 / bitrate=5500 / ratetol=1.0 / qcomp=0.60 / qpmin=3 / qpmax=69 / qpstep=4 / cplxblur=20.0 / qblur=0.5 / ip_ratio=1.40 / aq=1:2.00
Language : English
Default : Yes
Forced : No
Color primaries : BT.709
Transfer characteristics : BT.709
Matrix coefficients : BT.709

Audio
ID : 2
Format : DTS
Format/Info : Digital Theater Systems
Mode : 16
Format settings, Endianness : Big
Muxing mode : Header stripping
Codec ID : A_DTS
Duration : 3h 47mn
Bit rate mode : Constant
Bit rate : 755 Kbps
Channel(s) : 6 channels
Channel positions : Front: L C R, Side: L R, LFE
Sampling rate : 48.0 KHz
Bit depth : 24 bits
Compression mode : Lossy
Stream size : 1.20 GiB (12%)
Language : English
Default : Yes
Forced : No
<<

DenyAll

DLNA master

Posts: 2187

Joined: Fri Mar 08, 2013 11:16 pm

Location: Adelaide, Australia

Post Wed Mar 25, 2015 9:52 pm

Re: Best Profile 2013 VT60

This file has header compression (header stripping) which is likely not supported by your TV. To remove it see http://wiki.serviio.org/doku.php?id=header_com.
DenyAll
Panasonic Viera FX800A | Panasonic Viera CS610A | Sony PS4 | Sony PS3 | Panasonic DMP-BD79 | Yamaha RX-V500D | iPad | Windows 10 | Serviio 1.10 Pro
WinHelper | MediaInfo

Beta Tester, Moderator
Please do not PM me for support as any solution cannot be shared with others.
<<

mjb_i

Serviio newbie

Posts: 18

Joined: Thu Feb 06, 2014 2:38 pm

Post Fri Mar 27, 2015 3:31 pm

Re: Best Profile 2013 VT60

I did remux the file which appears to have removed the compression, but did not correct the blank video playback (audio is fine). The remuxed media info follows:

General
Unique ID : 193803452525621190736646849097489307617 (0x91CD2FEFE8BAF478A6EBF58E8661D7E1)
Complete name : \\IE-SERVER2008\My Videos\Lawrence of Arabia 1962 BDRip 1080p DTS multisub HighCode-PHD (1).mkv
Format : Matroska
Format version : Version 4 / Version 2
File size : 9.94 GiB
Duration : 3h 47mn
Overall bit rate : 6 268 Kbps
Encoded date : UTC 2015-03-26 21:08:58
Writing application : mkvmerge v7.3.0 ('Nouages') 64bit built on Oct 22 2014 18:53:34
Writing library : libebml v1.3.0 + libmatroska v1.4.1
DURATION : 03:35:36.940000000
NUMBER_OF_FRAMES : 1314
NUMBER_OF_BYTES : 49216
_STATISTICS_WRITING_APP : mkvmerge v7.3.0 ('Nouages') 64bit built on Oct 22 2014 18:53:34
_STATISTICS_WRITING_DATE_UTC : 2015-03-26 21:08:58
_STATISTICS_TAGS : BPS DURATION NUMBER_OF_FRAMES NUMBER_OF_BYTES

Video
ID : 1
Format : AVC
Format/Info : Advanced Video Codec
Format profile : High@L5.0
Format settings, CABAC : Yes
Format settings, ReFrames : 6 frames
Codec ID : V_MPEG4/ISO/AVC
Duration : 3h 47mn
Bit rate : 5 500 Kbps
Width : 1 920 pixels
Height : 880 pixels
Display aspect ratio : 2.2:1
Frame rate mode : Constant
Frame rate : 23.976 fps
Color space : YUV
Chroma subsampling : 4:2:0
Bit depth : 8 bits
Scan type : Progressive
Bits/(Pixel*Frame) : 0.136
Stream size : 8.54 GiB (86%)
Title : Lawrence of Arabia 1962 BDRip 1080p DTS multisub HighCode-PHD
Writing library : x264 core 120
Encoding settings : cabac=1 / ref=6 / deblock=1:-3:-3 / analyse=0x3:0x133 / me=umh / subme=10 / psy=1 / psy_rd=0.80:0.00 / mixed_ref=1 / me_range=64 / chroma_me=1 / trellis=2 / 8x8dct=1 / cqm=0 / deadzone=21,11 / fast_pskip=1 / chroma_qp_offset=-2 / threads=12 / sliced_threads=0 / nr=0 / decimate=1 / interlaced=0 / bluray_compat=0 / constrained_intra=0 / bframes=8 / b_pyramid=2 / b_adapt=2 / b_bias=0 / direct=3 / weightb=1 / open_gop=0 / weightp=2 / keyint=240 / keyint_min=24 / scenecut=40 / intra_refresh=0 / rc_lookahead=120 / rc=2pass / mbtree=1 / bitrate=5500 / ratetol=1.0 / qcomp=0.60 / qpmin=3 / qpmax=69 / qpstep=4 / cplxblur=20.0 / qblur=0.5 / ip_ratio=1.40 / aq=1:2.00
Language : English
Default : Yes
Forced : No
Color primaries : BT.709
Transfer characteristics : BT.709
Matrix coefficients : BT.709
<<

DenyAll

DLNA master

Posts: 2187

Joined: Fri Mar 08, 2013 11:16 pm

Location: Adelaide, Australia

Post Mon Mar 30, 2015 4:21 am

Re: Best Profile 2013 VT60

Not sure. Try an ffmpeg -i in the file and see if that gives a hint at what is wrong, but otherwise you may need to re-encode the video in the file.
DenyAll
Panasonic Viera FX800A | Panasonic Viera CS610A | Sony PS4 | Sony PS3 | Panasonic DMP-BD79 | Yamaha RX-V500D | iPad | Windows 10 | Serviio 1.10 Pro
WinHelper | MediaInfo

Beta Tester, Moderator
Please do not PM me for support as any solution cannot be shared with others.

Return to Panasonic

Who is online

Users browsing this forum: No registered users and 2 guests

Powered by phpBB © 2000, 2002, 2005, 2007 phpBB Group.
Designed by ST Software for PTF.