FAQ  •  Register  •  Login

Quits and advances to next video

<<

mjb_i

Serviio newbie

Posts: 18

Joined: Thu Feb 06, 2014 2:38 pm

Post Sat Sep 12, 2015 8:38 pm

Quits and advances to next video

I pulled down two versions of this video, one 1080p and the other 720p. Both begin running, go through the studio screen splashes, then quit and advance to the next video in line. Both play completely through PC, android tablet, etc. I am running DLNA on a Panasonic Viera VT60. Note the following video information.

General
Complete name : \\IE-SERVER2008\My Videos\Hitting the Apex (2015) 1080p WebDL x264 AAC AC3.mp4
Format : MPEG-4
Format profile : Base Media / Version 2
Codec ID : mp42
File size : 5.52 GiB
Duration : 2h 18mn
Overall bit rate mode : Variable
Overall bit rate : 5 713 Kbps
Movie name : Hitting the Apex
Performer : Mark Neale
Performer/Sorted by : Mark Neale
Genre : Documentary
ContentType : Short Film
Description : Sequel of "Fastest", this is the story of the battle for supremacy in the MotoGP world championship
Recorded date : UTC 2015-08-20 07:00:00
Encoded date : UTC 2015-09-10 23:15:03
Tagged date : UTC 2015-09-10 23:30:16
Copyright : © 2015 The First Movie Company Inc. All Rights Reserved
Cover : Yes
AppleStoreAccount :
ownr :
AppleStoreCatalogID : 1032847247
GenreID : 4405
PurchaseDate : 2015-09-10 21:13:19
Title/Sort : Hitting the Apex
ContentRating : uk-movie|12|300|
LongDescription : Sequel of "Fastest", this is the story of the battle for supremacy in the MotoGP world championship, the fight for number one status among the fastest riders in the world. What are we really witnessing when we watch the world's top motorcycle racers fighting it out at over 200mph. At its heart, the movie is driven by an intense rivalry and a great friendship between the greatest MotoGP riders in the world: Rossi, Lorenzo, Pedrosa, Stoner, Marquez and Simoncelli.
iTunMOVI : <?xml version="1.0" encoding="UTF-8"?> / <!DOCTYPE plist PUBLIC "-//Apple//DTD PLIST 1.0//EN" "http://www.apple.com/DTDs/PropertyList-1.0.dtd"> / <plist version="1.0"> / <dict> / <key>asset-info</key> / <dict> / <key>file-size</key> / <integer>4864374757</integer> / <key>flavor</key> / <string>7:720p</string> / <key>high-definition</key> / <true/> / <key>screen-format</key> / <string>widescreen</string> / <key>soundtrack</key> / <string>DD,DS</string> / </dict> / <key>cast</key> / <array> / <dict> / <key>adamId</key> / <integer>272994458</integer> / <key>name</key> / <string>Brad Pitt</string> / </dict> / <dict> / <key>adamId</key> / <integer>273855149</integer> / <key>name</key> / <string>Valentino Rossi</string> / </dict> / <dict> / <key>adamId</key> / <integer>517586279</integer> / <key>name</key> / <string>Jorgë Lorenzo</string> / </dict> / <dict> / <key>adamId</key> / <integer>793154864</integer> / <key>name</key> / <string>Dani Pedrosa</string> / </dict> / <dict> / <key>adamId</key> / <integer>793154860</integer> / <key>name</key> / <string>Marc Marquez</string> / </dict> / </array> / <key>codirectors</key> / <array/> / <key>copy-warning</key> / <string>&amp;nbsp;</string> / <key>directors</key> / <array> / <dict> / <key>adamId</key> / <integer>81458498</integer> / <key>name</key> / <string>Mark Neale</string> / </dict> / </array> / <key>producers</key> / <array> / <dict> / <key>adamId</key> / <integer>272994458</integer> / <key>name</key> / <string>Brad Pitt</string> / </dict> / <dict> / <key>adamId</key> / <integer>81458498</integer> / <key>name</key> / <string>Mark Neale</string> / </dict> / </array> / <key>screenwriters</key> / <array> / <dict> / <key>adamId</key> / <integer>81458498</integer> / <key>name</key> / <string>Mark Neale</string> / </dict> / </array> / <key>studio</key> / <string>NBC Universal</string> / </dict> / </plist>

Video
ID : 2
Format : AVC
Format/Info : Advanced Video Codec
Format profile : High@L4.0
Format settings, CABAC : Yes
Format settings, ReFrames : 4 frames
Codec ID : avc1
Codec ID/Info : Advanced Video Coding
Duration : 2h 18mn
Bit rate : 5 197 Kbps
Width : 1 912 pixels
Height : 1 072 pixels
Display aspect ratio : 16:9
Frame rate mode : Constant
Frame rate : 23.976 fps
Color space : YUV
Chroma subsampling : 4:2:0
Bit depth : 8 bits
Scan type : Progressive
Bits/(Pixel*Frame) : 0.106
Stream size : 5.02 GiB (91%)
Language : English
Encoded date : UTC 2015-09-10 23:15:03
Tagged date : UTC 2015-09-10 23:30:16
Color primaries : BT.709
Transfer characteristics : BT.709
Matrix coefficients : BT.709

Audio #1
ID : 1
Format : AAC
Format/Info : Advanced Audio Codec
Format profile : LC
Codec ID : 40
Duration : 2h 18mn
Duration_LastFrame : -1ms
Bit rate mode : Variable
Bit rate : 124 Kbps
Maximum bit rate : 207 Kbps
Channel(s) : 2 channels
Channel positions : Front: L R
Sampling rate : 48.0 KHz
Compression mode : Lossy
Stream size : 122 MiB (2%)
Language : English
Encoded date : UTC 2015-09-10 23:15:03
Tagged date : UTC 2015-09-10 23:30:16

Audio #2
ID : 3
Format : AC-3
Format/Info : Audio Coding 3
Mode extension : CM (complete main)
Format settings, Endianness : Big
Codec ID : ac-3
Duration : 2h 18mn
Bit rate mode : Constant
Bit rate : 384 Kbps
Channel(s) : 6 channels
Channel positions : Front: L C R, Side: L R, LFE
Sampling rate : 48.0 KHz
Bit depth : 16 bits
Compression mode : Lossy
Stream size : 380 MiB (7%)
Language : English
Encoded date : UTC 2015-09-10 23:15:03
Tagged date : UTC 2015-09-10 23:30:16

Text #1
ID : 4
Format : Timed Text
Muxing mode : sbtl
Codec ID : tx3g
Duration : 2h 15mn
Bit rate mode : Variable
Bit rate : 17 bps
Stream size : 16.8 KiB (0%)
Language : English
Encoded date : UTC 2015-09-10 23:15:03
Tagged date : UTC 2015-09-10 23:17:24

Text #2
ID : 5
Format : Timed Text
Muxing mode : sbtl
Codec ID : tx3g
Duration : 2h 15mn
Bit rate mode : Variable
Bit rate : 126 bps
Stream size : 125 KiB (0%)
Language : Spanish
Encoded date : UTC 2015-09-10 23:15:03
Tagged date : UTC 2015-09-10 23:29:52

Text #3
ID : 6
Format : Timed Text
Muxing mode : sbtl
Codec ID : tx3g
Duration : 2h 15mn
Bit rate mode : Variable
Bit rate : 133 bps
Stream size : 132 KiB (0%)
Language : French
Encoded date : UTC 2015-09-10 23:15:03
Tagged date : UTC 2015-09-10 23:29:52

Text #4
ID : 7
Format : Timed Text
Muxing mode : sbtl
Codec ID : tx3g
Duration : 2h 15mn
Bit rate mode : Variable
Bit rate : 129 bps
Stream size : 128 KiB (0%)
Language : Portuguese
Encoded date : UTC 2015-09-10 23:15:03
Tagged date : UTC 2015-09-10 23:29:51

Text #5
ID : 8
Format : Timed Text
Muxing mode : sbtl
Codec ID : tx3g
Duration : 2h 15mn
Bit rate mode : Variable
Bit rate : 119 bps
Stream size : 118 KiB (0%)
Language : Italian
Encoded date : UTC 2015-09-10 23:15:04
Tagged date : UTC 2015-09-10 23:29:50

Text #6
ID : 9
Format : Timed Text
Muxing mode : sbtl
Codec ID : tx3g
Duration : 2h 15mn
Bit rate mode : Variable
Bit rate : 136 bps
Stream size : 135 KiB (0%)
Language : German
Encoded date : UTC 2015-09-10 23:15:04
Tagged date : UTC 2015-09-10 23:29:52

Text #7
ID : 10
Format : Timed Text
Muxing mode : sbtl
Codec ID : tx3g
Duration : 2h 15mn
Bit rate mode : Variable
Bit rate : 126 bps
Stream size : 125 KiB (0%)
Language : Dutch
Encoded date : UTC 2015-09-10 23:15:04
Tagged date : UTC 2015-09-10 23:29:51

Text #8
ID : 11
Format : Timed Text
Muxing mode : sbtl
Codec ID : tx3g
Duration : 2h 15mn
Bit rate mode : Variable
Bit rate : 105 bps
Stream size : 105 KiB (0%)
Language : Swedish
Encoded date : UTC 2015-09-10 23:15:04
Tagged date : UTC 2015-09-10 23:29:46

Text #9
ID : 12
Format : Timed Text
Muxing mode : sbtl
Codec ID : tx3g
Duration : 2h 15mn
Bit rate mode : Variable
Bit rate : 107 bps
Stream size : 107 KiB (0%)
Language : Norwegian
Encoded date : UTC 2015-09-10 23:15:04
Tagged date : UTC 2015-09-10 23:29:51

Text #10
ID : 13
Format : Timed Text
Muxing mode : sbtl
Codec ID : tx3g
Duration : 2h 15mn
Bit rate mode : Variable
Bit rate : 115 bps
Stream size : 114 KiB (0%)
Language : Danish
Encoded date : UTC 2015-09-10 23:15:04
Tagged date : UTC 2015-09-10 23:29:51

Text #11
ID : 14
Format : Timed Text
Muxing mode : sbtl
Codec ID : tx3g
Duration : 2h 15mn
Bit rate mode : Variable
Bit rate : 112 bps
Stream size : 111 KiB (0%)
Language : Finnish
Encoded date : UTC 2015-09-10 23:15:04
Tagged date : UTC 2015-09-10 23:29:51

Text #12
ID : 15
Format : Timed Text
Muxing mode : sbtl
Codec ID : tx3g
Duration : 2h 15mn
Bit rate mode : Variable
Bit rate : 179 bps
Stream size : 178 KiB (0%)
Language : Greek
Encoded date : UTC 2015-09-10 23:15:04
Tagged date : UTC 2015-09-10 23:29:51

Text #13
ID : 16
Format : Timed Text
Muxing mode : sbtl
Codec ID : tx3g
Duration : 2h 15mn
Bit rate mode : Variable
Bit rate : 124 bps
Stream size : 123 KiB (0%)
Language : Polish
Encoded date : UTC 2015-09-10 23:15:04
Tagged date : UTC 2015-09-10 23:29:51

Text #14
ID : 17
Format : Timed Text
Muxing mode : sbtl
Codec ID : tx3g
Duration : 2h 15mn
Bit rate mode : Variable
Bit rate : 128 bps
Stream size : 127 KiB (0%)
Language : Hungarian
Encoded date : UTC 2015-09-10 23:15:04
Tagged date : UTC 2015-09-10 23:29:52

Text #15
ID : 18
Format : Timed Text
Muxing mode : sbtl
Codec ID : tx3g
Duration : 2h 15mn
Bit rate mode : Variable
Bit rate : 128 bps
Stream size : 127 KiB (0%)
Language : Turkish
Encoded date : UTC 2015-09-10 23:15:04
Tagged date : UTC 2015-09-10 23:29:52

Text #16
ID : 19
Format : Timed Text
Muxing mode : sbtl
Codec ID : tx3g
Duration : 2h 15mn
Bit rate mode : Variable
Bit rate : 166 bps
Stream size : 164 KiB (0%)
Language : Arabic
Encoded date : UTC 2015-09-10 23:15:04
Tagged date : UTC 2015-09-10 23:29:51

Text #17
ID : 20
Format : Timed Text
Muxing mode : sbtl
Codec ID : tx3g
Duration : 2h 15mn
Bit rate mode : Variable
Bit rate : 180 bps
Stream size : 178 KiB (0%)
Language : Russian
Encoded date : UTC 2015-09-10 23:15:04
Tagged date : UTC 2015-09-10 23:29:52

Text #18
ID : 21
Format : Timed Text
Muxing mode : sbtl
Codec ID : tx3g
Duration : 2h 15mn
Bit rate mode : Variable
Bit rate : 172 bps
Stream size : 170 KiB (0%)
Language : Bulgarian
Encoded date : UTC 2015-09-10 23:15:04
Tagged date : UTC 2015-09-10 23:29:51

Text #19
ID : 22
Format : Timed Text
Muxing mode : sbtl
Codec ID : tx3g
Duration : 2h 15mn
Bit rate mode : Variable
Bit rate : 257 bps
Stream size : 255 KiB (0%)
Language : Hindi
Encoded date : UTC 2015-09-10 23:15:04
Tagged date : UTC 2015-09-10 23:29:52

Text #20
ID : 23
Format : Timed Text
Muxing mode : sbtl
Codec ID : tx3g
Duration : 2h 15mn
Bit rate mode : Variable
Bit rate : 122 bps
Stream size : 122 KiB (0%)
Language : Czech
Encoded date : UTC 2015-09-10 23:15:04
Tagged date : UTC 2015-09-10 23:29:51

Text #21
ID : 24
Format : Timed Text
Muxing mode : sbtl
Codec ID : tx3g
Duration : 2h 15mn
Bit rate mode : Variable
Bit rate : 132 bps
Stream size : 131 KiB (0%)
Language : English
Encoded date : UTC 2015-09-10 23:15:04
Tagged date : UTC 2015-09-10 23:29:47
<<

mjb_i

Serviio newbie

Posts: 18

Joined: Thu Feb 06, 2014 2:38 pm

Post Tue Sep 15, 2015 3:25 pm

Re: Quits and advances to next video

pardon my lack of reading directions... I did turn on the log file. Rather than pasting the whole file, what component is most relevant? This appears to be the point where it quits the first video and goes to the second. The second is a 720p version of the first which also exhibits the same error.

2015-09-15 11:02:53,474 DEBUG [VideoDeliveryEngine] Retrieving resource information for item 783, format AVC_MP4_MP_HD_1080i_AAC and profile Panasonic Viera (2013)
2015-09-15 11:02:53,474 DEBUG [MediaItemDAOImpl] Getting file of media item 783
2015-09-15 11:02:53,475 DEBUG [DLNAProtocolHandler] Unsupported range request, sending back 416
2015-09-15 11:02:58,143 DEBUG [SearchManager] Committing search index
2015-09-15 11:03:10,478 DEBUG [DiscoverySSDPMessageListener] Received a valid M-SEARCH message for search target urn:schemas-upnp-org:device:InternetGatewayDevice:1 from address /192.168.1.151:54755s
2015-09-15 11:03:12,205 DEBUG [WebServer] I/O error: Connection reset by peer: socket write error
2015-09-15 11:03:12,222 DEBUG [ServiioHttpService] Incoming request from /192.168.1.185:54021: GET /resource/784/MEDIA_ITEM/AVC_MP4_MP_HD_720p_AAC-0/ORIGINAL HTTP/1.1, headers = [User-Agent: Panasonic,Accept: */*,Range: bytes=0-,Connection: close,Host: 192.168.1.161:8895]]
2015-09-15 11:03:12,223 DEBUG [RendererDAOImpl] Reading a Renderer with ip address 192.168.1.185
2015-09-15 11:03:12,223 DEBUG [RendererDAOImpl] Reading a Renderer with ip address 192.168.1.185
2015-09-15 11:03:12,224 DEBUG [ResourceDeliveryProcessor] Resource request accepted. Using client 'Identifier=192.168.1.185, Profile=Panasonic Viera (2013)'
2015-09-15 11:03:12,224 DEBUG [ResourceDeliveryProcessor] Request for resource 784 and type 'MEDIA_ITEM' received
2015-09-15 11:03:12,224 DEBUG [MediaResourceRetrievalStrategy] Getting information about media item 784 (local)
2015-09-15 11:03:12,224 DEBUG [MediaItemDAOImpl] Reading a MediaItem (id = 784)
2015-09-15 11:03:12,225 DEBUG [VideoDAOImpl] Reading a Video (id = 784)

Return to Panasonic

Who is online

Users browsing this forum: No registered users and 1 guest

Powered by phpBB © 2000, 2002, 2005, 2007 phpBB Group.
Designed by ST Software for PTF.