FAQ  •  Register  •  Login

CX800 DTS unsupported

<<

jameslost

Serviio newbie

Posts: 4

Joined: Sat Oct 10, 2015 12:19 pm

Post Sat Oct 10, 2015 1:29 pm

CX800 DTS unsupported

Hello,

I'm getting audio format not supported on MKV/MP4 AVC DTS files & panasonic 2013 profile.
I'm using a tx50-cx800 tv.
I tried to uncomment the line in the config. No avail.
Now using the xbox one profile. Trying to merge to profiles without much success at the moment.


Video
ID : 1
Format : AVC
Format/Info : Advanced Video Codec
Format profile : High@L4.1
Format settings, CABAC : Yes
Format settings, ReFrames : 4 frames
Codec ID : V_MPEG4/ISO/AVC
Duration : 59mn 45s
Bit rate : 8 957 Kbps
Width : 1 920 pixels
Height : 1 080 pixels
Display aspect ratio : 16:9
Frame rate mode : Constant
Frame rate : 23.976 fps
Color space : YUV
Chroma subsampling : 4:2:0
Bit depth : 8 bits
Scan type : Progressive
Bits/(Pixel*Frame) : 0.180
Stream size : 3.65 GiB (84%)
Writing library : x264 core 142 r2431 ac76440
Encoding settings : cabac=1 / ref=4 / deblock=1:0:0 / analyse=0x3:0x133 / me=umh / subme=7 / psy=1 / psy_rd=1.00:0.00 / mixed_ref=1 / me_range=16 / chroma_me=1 / trellis=1 / 8x8dct=1 / cqm=0 / deadzone=21,11 / fast_pskip=0 / chroma_qp_offset=-2 / threads=12 / lookahead_threads=2 / sliced_threads=0 / nr=0 / decimate=1 / interlaced=0 / bluray_compat=0 / constrained_intra=0 / bframes=3 / b_pyramid=2 / b_adapt=1 / b_bias=0 / direct=1 / weightb=1 / open_gop=0 / weightp=2 / keyint=250 / keyint_min=23 / scenecut=40 / intra_refresh=0 / rc_lookahead=40 / rc=2pass / mbtree=1 / bitrate=8957 / ratetol=1.0 / qcomp=0.60 / qpmin=0 / qpmax=69 / qpstep=4 / cplxblur=20.0 / qblur=0.5 / ip_ratio=1.40 / aq=1:1.00
Language : English
Default : Yes
Forced : No

Audio
ID : 2
Format : DTS
Format/Info : Digital Theater Systems
Mode : 16
Format settings, Endianness : Big
Codec ID : A_DTS
Duration : 59mn 45s
Bit rate mode : Constant
Bit rate : 1 509 Kbps
Channel(s) : 6 channels
Channel positions : Front: L C R, Side: L R, LFE
Sampling rate : 48.0 KHz
Bit depth : 24 bits
Compression mode : Lossy
Stream size : 645 MiB (14%)
Language : English
Default : Yes
Forced : No
<<

jameslost

Serviio newbie

Posts: 4

Joined: Sat Oct 10, 2015 12:19 pm

Post Sat Oct 10, 2015 6:15 pm

Re: CX800 DTS unsupported

It does work.
Just uncomment the line and make sure you exit panansonic mediacenter. Seems the last error is cashed on the TV.
Sorry!

<Matches container="matroska" vCodec="h264" aCodec="dca" /> <!-- Uncomment this line if DTS is not supported natively -->
<<

kgbogdan

Streaming enthusiast

Posts: 23

Joined: Mon Apr 04, 2016 4:39 pm

Post Wed Mar 22, 2017 9:09 am

Re: CX800 DTS unsupported

Check this forum thread:
viewtopic.php?f=7&t=21909&p=113473#p113473
I own a TX50-CX800 and sound is working just fine

Kind regards,
Bogdan

Return to Panasonic

Who is online

Users browsing this forum: No registered users and 2 guests

Powered by phpBB © 2000, 2002, 2005, 2007 phpBB Group.
Designed by ST Software for PTF.