FAQ  •  Register  •  Login

Panasonic SC-BTT190 blu ray player

<<

EnigmaPrime

Serviio newbie

Posts: 4

Joined: Wed Dec 19, 2012 8:33 pm

Post Wed Dec 19, 2012 8:41 pm

Panasonic SC-BTT190 blu ray player

Okay very new to Serviio
Has anyone tried this with Panasonic SC-BTT190 blu ray player, I can see the serviio server via the Panasonic SC-BTT190 and I can play some files, but .mkv files will not play, I can also see the online items i.e. RSS feeds, but when I attempt to play them they will not.
I am connected via Ethernet cable not WiFi.
Running windows 7, the Panasonic SC-BTT190 plays all my files via DLNA server with out any problems, I specifically want this for streams from the net via my PC to the player.
(Please note this is while using the built in DLNA server option on the player itself and not with Serviio)

Any beginner help much appreciated.

I have tried all 3 Panasonic Viera settings and the Generic setting.
Last edited by EnigmaPrime on Wed Dec 19, 2012 9:25 pm, edited 1 time in total.
<<

EnigmaPrime

Serviio newbie

Posts: 4

Joined: Wed Dec 19, 2012 8:33 pm

Post Wed Dec 19, 2012 9:02 pm

Re: Panasonic SC-BTT190 blu ray player

Adding more info as I read thru the forums, so please bare with me as I am on the lower end of the learning curve here.

DeviceSpy
  Code:
http-get:*:video/vnd.dlna.mpeg-tts:DLNA.ORG_PN=AVC_TS_HD_24_LPCM_T,
http-get:*:video/vnd.dlna.mpeg-tts:DLNA.ORG_PN=AVC_TS_HD_24_AC3_X_T,
http-get:*:video/vnd.dlna.mpeg-tts:DLNA.ORG_PN=AVC_TS_HD_24_AC3_T,
http-get:*:video/vnd.dlna.mpeg-tts:DLNA.ORG_PN=AVC_TS_HD_24_AC3,
http-get:*:video/mpeg:DLNA.ORG_PN=AVC_TS_HD_24_AC3_ISO,
http-get:*:video/vnd.dlna.mpeg-tts:DLNA.ORG_PN=AVC_TS_HD_60_LPCM_T,
http-get:*:video/vnd.dlna.mpeg-tts:DLNA.ORG_PN=AVC_TS_HD_60_AC3_X_T,
http-get:*:video/vnd.dlna.mpeg-tts:DLNA.ORG_PN=AVC_TS_HD_60_AC3_T,
http-get:*:video/vnd.dlna.mpeg-tts:DLNA.ORG_PN=AVC_TS_HD_60_AC3,
http-get:*:video/mpeg:DLNA.ORG_PN=AVC_TS_HD_60_AC3_ISO,
http-get:*:video/vnd.dlna.mpeg-tts:DLNA.ORG_PN=MPEG_TS_SD_NA_T,
http-get:*:video/vnd.dlna.mpeg-tts:DLNA.ORG_PN=MPEG_TS_SD_NA,
http-get:*:video/mpeg:DLNA.ORG_PN=MPEG_TS_SD_NA_ISO,
http-get:*:video/mpeg:DLNA.ORG_PN=MPEG_PS_NTSC,
http-get:*:image/jpeg:DLNA.ORG_PN=JPEG_LRG,
http-get:*:image/jpeg:DLNA.ORG_PN=JPEG_MED,
http-get:*:image/jpeg:DLNA.ORG_PN=JPEG_SM,
http-get:*:audio/L16:DLNA.ORG_PN=LPCM,
http-get:*:audio/mpeg:DLNA.ORG_PN=MP3,
http-get:*:video/vnd.dlna.mpeg-tts:*,
http-get:*:video/mpeg:*,http-get:*:video/mp4:*,
http-get:*:video/quicktime:*,
http-get:*:image/jpeg:*,http-get:*:audio/flac:*,http-get:*:audio/x-flac:*
<<

EnigmaPrime

Serviio newbie

Posts: 4

Joined: Wed Dec 19, 2012 8:33 pm

Post Wed Dec 19, 2012 9:21 pm

Re: Panasonic SC-BTT190 blu ray player

MediaInfo for two files.
First file plays, second file does not.
File 1 was re-encoded from a .mkv file to a .mp4 file
File 2 is in its original .mp4 format
(I thought this might be relevant)

Has this something to do with the Trans-coding which I have just started to read up on?

File 1
  Code:
General
Complete name                            : E:\Video\Movies\Tron Legacy.mp4
Format                                   : MPEG-4
Format profile                           : Base Media
Codec ID                                 : isom
File size                                : 1.42 GiB
Duration                                 : 2h 5mn
Overall bit rate                         : 1 624 Kbps
Encoded date                             : UTC 2011-03-04 04:15:45
Tagged date                              : UTC 2011-03-04 04:15:45
Writing application                      : Lavf54.36.100

Video
ID                                       : 1
Format                                   : AVC
Format/Info                              : Advanced Video Codec
Format profile                           : Main@L5.1
Format settings, CABAC                   : Yes
Format settings, ReFrames                : 1 frame
Codec ID                                 : avc1
Codec ID/Info                            : Advanced Video Coding
Duration                                 : 2h 5mn
Bit rate                                 : 1 500 Kbps
Width                                    : 1 920 pixels
Height                                   : 1 080 pixels
Display aspect ratio                     : 16:9
Frame rate mode                          : Constant
Frame rate                               : 23.976 fps
Color space                              : YUV
Chroma subsampling                       : 4:2:0
Bit depth                                : 8 bits
Scan type                                : Progressive
Bits/(Pixel*Frame)                       : 0.030
Stream size                              : 1.30 GiB (92%)
Writing library                          : x264 core 129 r2230
Encoding settings                        : cabac=1 / ref=1 / deblock=1:0:0 / analyse=0x1:0 / me=hex / subme=4 / psy=1 / psy_rd=2.00:0.00 / mixed_ref=0 / me_range=16 / chroma_me=1 / trellis=0 / 8x8dct=0 / cqm=0 / deadzone=21,11 / fast_pskip=1 / chroma_qp_offset=0 / threads=12 / lookahead_threads=2 / sliced_threads=0 / nr=0 / decimate=1 / interlaced=0 / bluray_compat=0 / constrained_intra=0 / bframes=0 / weightp=0 / keyint=230 / keyint_min=25 / scenecut=40 / intra_refresh=0 / rc_lookahead=40 / rc=abr / mbtree=0 / bitrate=1500 / ratetol=1.0 / qcomp=0.50 / qpmin=10 / qpmax=69 / qpstep=4 / vbv_maxrate=24000 / vbv_bufsize=24000 / nal_hrd=none / ip_ratio=1.40 / aq=1:2.00
Language                                 : English
Encoded date                             : UTC 2011-03-04 04:15:45
Tagged date                              : UTC 2011-03-04 04:15:45

Audio
ID                                       : 2
Format                                   : AAC
Format/Info                              : Advanced Audio Codec
Format profile                           : LC
Codec ID                                 : 40
Duration                                 : 2h 5mn
Duration_LastFrame                       : -11ms
Bit rate mode                            : Constant
Bit rate                                 : 128 Kbps
Channel(s)                               : 2 channels
Channel positions                        : Front: L R
Sampling rate                            : 44.1 KHz
Compression mode                         : Lossy
Stream size                              : 114 MiB (8%)
Language                                 : English
Encoded date                             : UTC 2011-03-04 04:15:45
Tagged date                              : UTC 2011-03-04 04:15:45


File 2
  Code:
General
Complete name                            : E:\Video\Movies\Love.mp4
Format                                   : MPEG-4
Format profile                           : Base Media
Codec ID                                 : isom
File size                                : 1.35 GiB
Duration                                 : 1h 23mn
Overall bit rate mode                    : Variable
Overall bit rate                         : 2 300 Kbps
Encoded date                             : UTC 2012-11-28 18:22:21
Tagged date                              : UTC 2012-11-28 18:22:21

Video
ID                                       : 1
Format                                   : AVC
Format/Info                              : Advanced Video Codec
Format profile                           : High@L4.0
Format settings, CABAC                   : Yes
Format settings, ReFrames                : 3 frames
Codec ID                                 : avc1
Codec ID/Info                            : Advanced Video Coding
Duration                                 : 1h 23mn
Bit rate                                 : 2 206 Kbps
Maximum bit rate                         : 33.4 Mbps
Width                                    : 1 920 pixels
Height                                   : 1 080 pixels
Display aspect ratio                     : 16:9
Frame rate mode                          : Constant
Frame rate                               : 23.976 fps
Color space                              : YUV
Chroma subsampling                       : 4:2:0
Bit depth                                : 8 bits
Scan type                                : Progressive
Bits/(Pixel*Frame)                       : 0.044
Stream size                              : 1.29 GiB (96%)
Writing library                          : x264 core 125 r2200 999b753
Encoding settings                        : cabac=1 / ref=4 / deblock=1:-1:-1 / analyse=0x3:0x133 / me=umh / subme=9 / psy=1 / psy_rd=1.00:0.15 / mixed_ref=1 / me_range=16 / chroma_me=1 / trellis=2 / 8x8dct=1 / cqm=0 / deadzone=21,11 / fast_pskip=1 / chroma_qp_offset=-3 / threads=12 / lookahead_threads=2 / sliced_threads=0 / nr=0 / decimate=1 / interlaced=0 / bluray_compat=0 / constrained_intra=0 / bframes=3 / b_pyramid=1 / b_adapt=2 / b_bias=2 / direct=3 / weightb=1 / open_gop=0 / weightp=2 / keyint=240 / keyint_min=23 / scenecut=40 / intra_refresh=0 / rc_lookahead=60 / rc=2pass / mbtree=1 / bitrate=2206 / ratetol=1.0 / qcomp=0.60 / qpmin=10 / qpmax=51 / qpstep=4 / cplxblur=20.0 / qblur=0.5 / ip_ratio=1.40 / aq=1:1.00
Encoded date                             : UTC 2012-11-28 18:22:21
Tagged date                              : UTC 2012-11-28 18:22:45

Audio
ID                                       : 2
Format                                   : AAC
Format/Info                              : Advanced Audio Codec
Format profile                           : LC
Codec ID                                 : 40
Duration                                 : 1h 23mn
Bit rate mode                            : Variable
Bit rate                                 : 92.0 Kbps
Maximum bit rate                         : 102 Kbps
Channel(s)                               : 2 channels
Channel positions                        : Front: L R
Sampling rate                            : 48.0 KHz
Compression mode                         : Lossy
Stream size                              : 55.2 MiB (4%)
Language                                 : English
Encoded date                             : UTC 2012-11-28 18:22:44
Tagged date                              : UTC 2012-11-28 18:22:45
<<

EnigmaPrime

Serviio newbie

Posts: 4

Joined: Wed Dec 19, 2012 8:33 pm

Post Wed Dec 19, 2012 9:23 pm

Re: Panasonic SC-BTT190 blu ray player

Have just confirmed .avi and xvid play okay
<<

computerguy7

Serviio newbie

Posts: 7

Joined: Thu Dec 27, 2012 1:30 am

Post Fri Dec 28, 2012 8:06 pm

Re: Panasonic SC-BTT190 blu ray player

I have similar issues viewtopic.php?f=13&t=8500
<<

LPZ_INC

Serviio newbie

Posts: 1

Joined: Sun Jan 20, 2013 4:41 pm

Post Sun Jan 20, 2013 4:46 pm

Re: Panasonic SC-BTT190 blu ray player

I have a Panasonic SC-BTT195 blu ray player and used the setting on the drop down menu for Panasonic Vierra E/S/ST/VT (2011) and it worked fine. pause, ffwd, rewind. Hope this helps.
<<

danicorleone

Serviio newbie

Posts: 1

Joined: Tue Feb 26, 2013 1:08 pm

Post Thu Feb 28, 2013 10:33 pm

Re: Panasonic SC-BTT190 blu ray player

Hi all,

I was wondering if you guys were able to use or create a different profile for the BTT190.

I'm using the Panasonic Viera 2010 profile and so far I'm able to play MKV files, but no subtitles are shown, and when I try to fast forward or something, the image freezes and have to exit the movie.

Any help would be appreciated.

Regards,
<<

tarnend

Serviio newbie

Posts: 5

Joined: Fri Oct 17, 2014 7:17 pm

Post Tue Mar 10, 2015 12:39 am

Re: Panasonic SC-BTT190 blu ray player

has anyone got a btt190 to play .mkv files and be able to pause them, forward and rewind them as well? as I can play them ok but it doesn't resume when paused or try to fast forward or rewind them....

Thanks

Return to Panasonic

Who is online

Users browsing this forum: No registered users and 1 guest

cron
Powered by phpBB © 2000, 2002, 2005, 2007 phpBB Group.
Designed by ST Software for PTF.