FAQ  •  Register  •  Login

MKV file not playing on 47VL800A

<<

GiNB

Serviio newbie

Posts: 6

Joined: Sat Oct 27, 2012 7:04 am

Post Tue Mar 05, 2013 6:57 am

MKV file not playing on 47VL800A

Running Ubuntu 12.10 Serviio 1.2 Using default Toshiba Regza profile

FFMPEG Output

gavin@Fred:~/Videos$ ffmpeg -i "Elementary.S01E05.720p.mkv"
ffmpeg version git-2013-02-21-47e9215 Copyright (c) 2000-2013 the FFmpeg developers
built on Feb 21 2013 10:56:00 with gcc 4.7 (Ubuntu/Linaro 4.7.2-2ubuntu1)
configuration: --enable-gpl --enable-libass --enable-libfaac --enable-libfdk-aac --enable-libmp3lame --enable-libopencore-amrnb --enable-libopencore-amrwb --enable-libspeex --enable-librtmp --enable-libtheora --enable-libvorbis --enable-libvpx --enable-x11grab --enable-libx264 --enable-nonfree --enable-version3
libavutil 52. 17.102 / 52. 17.102
libavcodec 54. 92.100 / 54. 92.100
libavformat 54. 63.100 / 54. 63.100
libavdevice 54. 3.103 / 54. 3.103
libavfilter 3. 38.106 / 3. 38.106
libswscale 2. 2.100 / 2. 2.100
libswresample 0. 17.102 / 0. 17.102
libpostproc 52. 2.100 / 52. 2.100
Input #0, matroska,webm, from 'Elementary.S01E05.720p.mkv':
Metadata:
creation_time : 2012-11-01 21:46:31
Duration: 00:43:33.95, start: 0.000000, bitrate: 2875 kb/s
Stream #0:0(eng): Video: h264 (High), yuv420p, 1280x720, SAR 1:1 DAR 16:9, 23.98 fps, 23.98 tbr, 1k tbn, 47.95 tbc
Stream #0:1: Audio: ac3, 48000 Hz, 5.1(side), fltp, 384 kb/s (default)

MediaInfo Output

  Code:
General
Unique ID                                : 289254396882900270053664562067542743034 (0xD99C5ED5D3C60636B7ED4A28B78997FA)
Complete name                            : /home/gavin/Videos/Elementary.S01E05.720p.mkv
Format                                   : Matroska
Format version                           : Version 2
File size                                : 896 MiB
Duration                                 : 43mn 33s
Overall bit rate                         : 2 876 Kbps
Encoded date                             : UTC 2012-11-01 21:46:31
Writing application                      : mkvmerge v3.0.0 ('Hang up your Hang-Ups') built on Apr 19 2010 11:58:49
Writing library                          : libebml v0.7.7 + libmatroska v0.8.1

Video
ID                                       : 1
Format                                   : AVC
Format/Info                              : Advanced Video Codec
Format profile                           : High@L4.1
Format settings, CABAC                   : Yes
Format settings, ReFrames                : 9 frames
Codec ID                                 : V_MPEG4/ISO/AVC
Duration                                 : 43mn 33s
Bit rate                                 : 2 434 Kbps
Width                                    : 1 280 pixels
Height                                   : 720 pixels
Display aspect ratio                     : 16:9
Frame rate mode                          : Constant
Frame rate                               : 23.976 fps
Color space                              : YUV
Chroma subsampling                       : 4:2:0
Bit depth                                : 8 bits
Scan type                                : Progressive
Bits/(Pixel*Frame)                       : 0.110
Stream size                              : 759 MiB (85%)
Writing library                          : x264 core 128 r2216 198a7ea
Encoding settings                        : cabac=1 / ref=9 / deblock=1:-2:-2 / analyse=0x3:0x133 / me=umh / subme=10 / psy=1 / psy_rd=1.00:0.00 / mixed_ref=1 / me_range=32 / chroma_me=1 / trellis=2 / 8x8dct=1 / cqm=0 / deadzone=21,11 / fast_pskip=0 / chroma_qp_offset=-2 / threads=20 / lookahead_threads=3 / sliced_threads=0 / nr=0 / decimate=1 / interlaced=0 / bluray_compat=0 / constrained_intra=0 / bframes=5 / b_pyramid=2 / b_adapt=2 / b_bias=0 / direct=3 / weightb=1 / open_gop=0 / weightp=2 / keyint=250 / keyint_min=23 / scenecut=40 / intra_refresh=0 / rc_lookahead=60 / rc=crf / mbtree=1 / crf=18.0 / qcomp=0.60 / qpmin=0 / qpmax=69 / qpstep=4 / ip_ratio=1.40 / aq=1:1.00
Language                                 : English
Default                                  : No
Forced                                   : No
Matrix coefficients                      : BT.709

Audio
ID                                       : 2
Format                                   : AC-3
Format/Info                              : Audio Coding 3
Mode extension                           : CM (complete main)
Format settings, Endianness              : Big
Codec ID                                 : A_AC3
Duration                                 : 43mn 33s
Bit rate mode                            : Constant
Bit rate                                 : 384 Kbps
Channel(s)                               : 6 channels
Channel positions                        : Front: L C R, Side: L R, LFE
Sampling rate                            : 48.0 KHz
Bit depth                                : 16 bits
Compression mode                         : Lossy
Delay relative to video                  : 28ms
Stream size                              : 120 MiB (13%)
Default                                  : Yes
Forced                                   : No



Thanks in anticipation. Tell me if any more info is required.
<<

slyguy42o

DLNA master

Posts: 477

Joined: Wed Oct 24, 2012 5:29 am

Post Thu Mar 28, 2013 2:32 pm

Re: MKV file not playing on 47VL800A

can you provide your server logs please?

Return to Toshiba

Who is online

Users browsing this forum: No registered users and 3 guests

Powered by phpBB © 2000, 2002, 2005, 2007 phpBB Group.
Designed by ST Software for PTF.