FAQ  •  Register  •  Login

mp4 file only sound

<<

glda19

Serviio newbie

Posts: 8

Joined: Sun Nov 27, 2016 11:35 am

Post Sun Oct 22, 2017 10:33 am

mp4 file only sound

Hi
i make some video's with my smartphone in mp4 format
When i tray to play the video om the tv philips 32PFL5007H/12 i only hear the sound and the screen is black
<<

atc98092

User avatar

DLNA master

Posts: 2568

Joined: Fri Aug 17, 2012 10:22 pm

Location: Washington (the state)

Post Mon Oct 23, 2017 11:00 am

Re: mp4 file only sound

glda19 wrote:Hi
i make some video's with my smartphone in mp4 format
When i tray to play the video om the tv philips 32PFL5007H/12 i only hear the sound and the screen is black


It's possible your phone is recording the video in a format your TV doesn't support. Post the video information here. See my sig line for help in gathering that information.
Dan

Panasonic ST30 Plasma, Samsung JU7100 4K TV, Sony BDP-S3500, Sharp 4K Roku TV, Roku 2 XS, 4, Ultra and Stick, Yamaha RX-V679 AVR.
Primary server: Intel i5-6400, 8 gig ram, Windows 10 Pro, 18 TB hard drive space | Test server Windows 7 Home Premium, AMD Phenom II X4 965, 8 gig ram

Enable debug logging Identify media file contents
<<

glda19

Serviio newbie

Posts: 8

Joined: Sun Nov 27, 2016 11:35 am

Post Mon Oct 23, 2017 3:07 pm

Re: mp4 file only sound

Get permission denie
the same when go to e:\foto's\
ffmpeg version 3.2.4 Copyright (c) 2000-2017 the FFmpeg developers
built with gcc 4.9.3 (GCC)
configuration: --enable-static --disable-shared --disable-ffplay --disable-ffserver --enable-memalign-hack --enable-libmp3lame --enable-libass --enable-librtmp --enable-fontconfig --enable-libfreetype --enable-zlib --enable-libx264 --enable-libspeex --extra-libs='-lrtmp -lpolarssl -lws2_32 -lwinmm -lexpat -lfreetype -lfribidi -lz' --arch=x86 --enable-runtime-cpudetect --enable-pthreads --target-os=mingw32 --cross-prefix=i686-w64-mingw32- --enable-gpl --pkg-config=pkg-config --bindir='/jenkins/workspace/FFmpeg - Win32/target'
libavutil 55. 34.101 / 55. 34.101
libavcodec 57. 64.101 / 57. 64.101
libavformat 57. 56.101 / 57. 56.101
libavdevice 57. 1.100 / 57. 1.100
libavfilter 6. 65.100 / 6. 65.100
libswscale 4. 2.100 / 4. 2.100
libswresample 2. 3.100 / 2. 3.100
libpostproc 54. 1.100 / 54. 1.100
d:: Permission denied
<<

glda19

Serviio newbie

Posts: 8

Joined: Sun Nov 27, 2016 11:35 am

Post Mon Oct 23, 2017 3:36 pm

Re: mp4 file only sound

<<

glda19

Serviio newbie

Posts: 8

Joined: Sun Nov 27, 2016 11:35 am

Post Mon Oct 23, 2017 3:44 pm

Re: mp4 file only sound

C:\Program Files\Serviio\lib>ffmpeg -i "e:\Foto's\marseille 9-16-2017\Marseille\VID_20170911_155020.mp4"
ffmpeg version 3.2.4 Copyright (c) 2000-2017 the FFmpeg developers
built with gcc 4.9.3 (GCC)
configuration: --enable-static --disable-shared --disable-ffplay --disable-ffserver --enable-memalign-hack --enable-libmp3lame --enable-libass --enable-librtmp --enable-fontconfig --enable-libfreetype --enable-zlib --enable-libx264 --enable-libspeex --extra-libs='-lrtmp -lpolarssl -lws2_32 -lwinmm -lexpat -lfreetype -lfribidi -lz' --arch=x86 --enable-runtime-cpudetect --enable-pthreads --target-os=mingw32 --cross-prefix=i686-w64-mingw32- --enable-gpl --pkg-config=pkg-config --bindir='/jenkins/workspace/FFmpeg - Win32/target'
libavutil 55. 34.101 / 55. 34.101
libavcodec 57. 64.101 / 57. 64.101
libavformat 57. 56.101 / 57. 56.101
libavdevice 57. 1.100 / 57. 1.100
libavfilter 6. 65.100 / 6. 65.100
libswscale 4. 2.100 / 4. 2.100
libswresample 2. 3.100 / 2. 3.100
libpostproc 54. 1.100 / 54. 1.100
Input #0, mov,mp4,m4a,3gp,3g2,mj2, from 'e:\Foto's\marseille 9-16-2017\Marseille\VID_20170911_155020.mp4':
Metadata:
major_brand : mp42
minor_version : 0
compatible_brands: isommp42
creation_time : 2017-09-11T13:50:20.000000Z
location : +43.2591+005.3747/
location-eng : +43.2591+005.3747/
com.android.version: 6.0
Duration: 00:00:44.12, start: 0.000000, bitrate: 19545 kb/s
Stream #0:0(eng): Video: h264 (Baseline) (avc1 / 0x31637661), yuv420p, 1920x1088, 19390 kb/s, SAR 1:1 DAR 30:17, 29.78 fps, 29.83 tbr, 90k tbn, 180k tbc (default)
Metadata:
creation_time : 2017-09-11T13:50:20.000000Z
handler_name : VideoHandle
Stream #0:1(eng): Audio: aac (LC) (mp4a / 0x6134706D), 48000 Hz, stereo, fltp, 96 kb/s (default)
Metadata:
creation_time : 2017-09-11T13:50:20.000000Z
handler_name : SoundHandle
At least one output file must be specified

C:\Program Files\Serviio\lib>

Return to Philips

Who is online

Users browsing this forum: No registered users and 1 guest

Powered by phpBB © 2000, 2002, 2005, 2007 phpBB Group.
Designed by ST Software for PTF.