FAQ  •  Register  •  Login

Philips TV doesn't see see files

<<

reinierbruil

Serviio newbie

Posts: 3

Joined: Thu Jan 17, 2013 9:11 pm

Post Thu Jan 17, 2013 9:31 pm

Philips TV doesn't see see files

Hi,

Problem: my Philips TV DOES see the Serviio server and the Music, photo and Video folders, but DOES NOT no content at all. However, the default "Diskstation" shows everything fine, I can also stream what I want (except the media formats that Serviio excel in!)

Setup:
- Synology 213 NAS, data is in /volume1/music,photo, video
- ownership of the directories and files serviio:users
- in the Serviio NAS package permissions set correctly for the user
- NAS has just one ip address, on the same subnet as the TV (I only have one router, Fritzbox 7340)
- Serviio Console recognizes the TV as Generic DLNA
- changing that to the default Philps profile does not help
- debug logging does not seem to show what I need

Question to you:
- is this a known issue (couldn't find it in the forum pages)?
- what would you need from me to assist any further?
- can
<<

reinierbruil

Serviio newbie

Posts: 3

Joined: Thu Jan 17, 2013 9:11 pm

Post Thu Jan 17, 2013 10:24 pm

Re: Philips TV doesn't see see files

Some additional information:
- I disabled ipv6 in my router
- uPNP is enabled

Thanks in advance,
Reinier
<<

slyguy42o

DLNA master

Posts: 477

Joined: Wed Oct 24, 2012 5:29 am

Post Thu Jan 17, 2013 10:34 pm

Re: Philips TV doesn't see see files

What does the manual say as far as formats that are supported via DLNA? Sounds like you may need to do some profile tweaking for your model.
<<

reinierbruil

Serviio newbie

Posts: 3

Joined: Thu Jan 17, 2013 9:11 pm

Post Sat Jan 19, 2013 6:39 pm

Re: Philips TV doesn't see see files

The manual states the following:

Windows Media Player 11 (for Microsoft Windows XP, Vista of Windows 7)
• TVersity 1.9.3 (pro) (for Windows XP)
• Twonky Media - PacketVideo 4.4.9 (for PC and Intel Mac OS X)
• Nero 9 - Nero MediaHome (for Microsoft Windows XP) • Sony Vaio-mediaserver (for Microsoft Windows XP of Vista)
• Sony PS3-mediaserver (for Windows XP)
• Google Media Server (Google Desktop) (for Windows XP) • DiXiM (for Windows XP)
• Macrovision Network-mediaserver (for Windows XP)
• Philips NAS SPD8020 (v. 1.2.9.47)
• Fuppes (voor Linux)
• uShare (voor Linux)

So, Twonky is there, but I prefer Serviio!

What changes in the Philips (or general) profile would recommend? And how can I make these changes?
<<

zip

User avatar

Serviio developer / Site Admin

Posts: 16324

Joined: Sat Oct 24, 2009 12:24 pm

Location: London, UK

Post Thu Jan 24, 2013 3:20 pm

Re: Philips TV doesn't see see files

have the files been added to the library? Can you see them in MediaBrowser or VLC?
<<

Tomtin

Serviio newbie

Posts: 1

Joined: Fri Jan 25, 2013 12:50 pm

Post Fri Jan 25, 2013 12:54 pm

Re: Philips TV doesn't see see files

I have the same problem.

When I add videos to my library from my computer my tv sees them and plays them no problem.
But when I add my LG NAS I can see the folders but not the videos themselfs.
<<

matschundbrei

User avatar

Serviio newbie

Posts: 2

Joined: Mon Apr 22, 2013 4:46 pm

Location: Germany

Post Mon Apr 22, 2013 4:54 pm

Re: Philips TV doesn't see see files

I have a similar Problem, but in a different constellation.
I am using a Phillips BlueRay Player with latest firmware and I run Serviio on my Windows8-PC. The Player is using the "Philips 2010-" profile.
While most of the files are seen and played correctly, I can neither play nor see certain .mp4 files on the Phillips Player that are correctly displayed and played through the Mediabrowser.

Here is an ffmpeg -i output from one of the latest files I am unable to play and see:
  Code:
D:\Programs\Serviio\lib>ffmpeg.exe -i "'d:\some video.mp4"
ffmpeg version 1.1.1 Copyright (c) 2000-2013 the FFmpeg developers
  built on Feb  5 2013 21:59:54 with gcc 4.7.2 (GCC)
  configuration: --enable-static --disable-shared --disable-ffplay --disable-ffs
erver --enable-memalign-hack --enable-libmp3lame --enable-libass --enable-librtm
p --enable-fontconfig --enable-libfreetype --enable-zlib --extra-libs='-lrtmp -l
polarssl -lws2_32 -lwinmm -lexpat -lfreetype -lfribidi -lz' --arch=x86 --enable-
runtime-cpudetect --enable-pthreads --target-os=mingw32 --cross-prefix=i686-w64-
mingw32- --pkg-config=pkg-config
  libavutil      52. 13.100 / 52. 13.100
  libavcodec     54. 86.100 / 54. 86.100
  libavformat    54. 59.106 / 54. 59.106
  libavdevice    54.  3.102 / 54.  3.102
  libavfilter     3. 32.100 /  3. 32.100
  libswscale      2.  1.103 /  2.  1.103
  libswresample   0. 17.102 /  0. 17.102
Input #0, mov,mp4,m4a,3gp,3g2,mj2, from 'd:\some video.mp4':
  Metadata:
    major_brand     : isom
    minor_version   : 512
    compatible_brands: isomiso2avc1mp41
    encoder         : Larry Sanders
  Duration: 00:44:15.72, start: 0.000000, bitrate: 1174 kb/s
    Stream #0:0(eng): Video: h264 (High) (avc1 / 0x31637661), yuv420p, 720x404,
1051 kb/s, 25 fps, 25 tbr, 20k tbn, 50 tbc
    Metadata:
      handler_name    : VideoHandler
    Stream #0:1(und): Audio: aac (mp4a / 0x6134706D), 48000 Hz, stereo, fltp, 11
4 kb/s
    Metadata:
      handler_name    : SoundHandler
At least one output file must be specified

D:\Programs\Serviio\lib>
<<

slyguy42o

DLNA master

Posts: 477

Joined: Wed Oct 24, 2012 5:29 am

Post Mon Apr 22, 2013 7:53 pm

Re: Philips TV doesn't see see files

there are a few different philips profiles, did you try them all?
<<

matschundbrei

User avatar

Serviio newbie

Posts: 2

Joined: Mon Apr 22, 2013 4:46 pm

Location: Germany

Post Mon Apr 22, 2013 10:16 pm

Re: Philips TV doesn't see see files

slyguy42o wrote:there are a few different philips profiles, did you try them all?


Thanks for the hint, if I am using the "Philips 2009" Profile, i can see and view the files. Unfortunately I can't skip or fast-forward them.
<<

gojc

Serviio newbie

Posts: 1

Joined: Mon Apr 27, 2015 3:56 pm

Post Mon Apr 27, 2015 4:05 pm

Re: Philips TV doesn't see see files

Hello!

I have a similar problem. On my TV (PHILIPS 42pus7809) I can only see a maximum of 9 files / subfolders in a folder. Evarything else is workin fine.

Any ideas?

THX in advance
<<

Mike@Home

Serviio newbie

Posts: 8

Joined: Fri Jan 10, 2014 11:35 am

Post Fri Jun 05, 2015 5:38 pm

Re: Philips TV doesn't see see files

Hi,
I use a Philips 49pus7909 and have no problems - after I did not find the Serviio Server for unknown reason I played around with my fritz!box and after that it foung both media servers - I switched off the fritz!box media server again - and it kept displaying serviio as the only remaining server. Maybe this helps.
or - try calling philips hotline ;)

Return to Philips

Who is online

Users browsing this forum: No registered users and 1 guest

Powered by phpBB © 2000, 2002, 2005, 2007 phpBB Group.
Designed by ST Software for PTF.