FAQ  •  Register  •  Login

help needed

<<

Iveky

User avatar

DLNA master

Posts: 329

Joined: Thu Jan 31, 2013 5:17 pm

Location: Split, Croatia

Post Mon Sep 23, 2013 5:09 pm

help needed

this stream is recognized by serviio (gives green V on 'check URL' after some 15-20 seconds), but is never added on menu of TV :(
VLC plays it immediately


ffmpeg -i http://109.175.10.98:4022/udp/225.10.20.24:5004
ffmpeg version 1.2.2 Copyright (c) 2000-2013 the FFmpeg developers
built on Aug 4 2013 08:24:19 with gcc 4.8.1 (GCC) 20130603 (Red Hat 4.8.1-1)
configuration: --prefix=/usr --bindir=/usr/bin --datadir=/usr/share/ffmpeg --incdir=/usr/include/ffmpeg --libdir=/usr/lib64 --mandir=/usr/share/man --arch=x86_64 --optflags='-O2 -g -pipe -Wall -Wp,-D_FORTIFY_SOURCE=2 -fexceptions -fstack-protector --param=ssp-buffer-size=4 -grecord-gcc-switches -m64 -mtune=generic' --enable-bzlib --disable-crystalhd --enable-frei0r --enable-gnutls --enable-libass --enable-libcelt --enable-libdc1394 --disable-indev=jack --enable-libfreetype --enable-libgsm --enable-libmp3lame --enable-openal --enable-libopencv --enable-libopenjpeg --enable-libopus --enable-libpulse --enable-libschroedinger --enable-libspeex --enable-libtheora --enable-libvorbis --enable-libv4l2 --enable-libvpx --enable-libx264 --enable-libxvid --enable-x11grab --enable-avfilter --enable-postproc --enable-pthreads --disable-static --enable-shared --enable-gpl --disable-debug --disable-stripping --shlibdir=/usr/lib64 --enable-runtime-cpudetect
libavutil 52. 18.100 / 52. 18.100
libavcodec 54. 92.100 / 54. 92.100
libavformat 54. 63.104 / 54. 63.104
libavdevice 54. 3.103 / 54. 3.103
libavfilter 3. 42.103 / 3. 42.103
libswscale 2. 2.100 / 2. 2.100
libswresample 0. 17.102 / 0. 17.102
libpostproc 52. 2.100 / 52. 2.100
[h264 @ 0xb6f9a0] non-existing PPS referenced
[h264 @ 0xb6f9a0] non-existing PPS 0 referenced
[h264 @ 0xb6f9a0] decode_slice_header error
[h264 @ 0xb6f9a0] no frame!
[h264 @ 0xb6f9a0] non-existing PPS referenced
[h264 @ 0xb6f9a0] non-existing PPS 0 referenced
[h264 @ 0xb6f9a0] decode_slice_header error
[h264 @ 0xb6f9a0] no frame!
[h264 @ 0xb6f9a0] non-existing PPS referenced
[h264 @ 0xb6f9a0] non-existing PPS 0 referenced
[h264 @ 0xb6f9a0] decode_slice_header error
[h264 @ 0xb6f9a0] no frame!
[h264 @ 0xb6f9a0] non-existing PPS referenced
[h264 @ 0xb6f9a0] non-existing PPS 0 referenced
[h264 @ 0xb6f9a0] decode_slice_header error
[h264 @ 0xb6f9a0] no frame!
[h264 @ 0xb6f9a0] non-existing PPS referenced
[h264 @ 0xb6f9a0] non-existing PPS 0 referenced
[h264 @ 0xb6f9a0] decode_slice_header error
[h264 @ 0xb6f9a0] no frame!
[h264 @ 0xb6f9a0] non-existing PPS referenced
[h264 @ 0xb6f9a0] non-existing PPS 0 referenced
[h264 @ 0xb6f9a0] decode_slice_header error
[h264 @ 0xb6f9a0] no frame!
[h264 @ 0xb6f9a0] non-existing PPS referenced
[h264 @ 0xb6f9a0] non-existing PPS 0 referenced
[h264 @ 0xb6f9a0] decode_slice_header error
[h264 @ 0xb6f9a0] no frame!
[h264 @ 0xb6f9a0] non-existing PPS referenced
[h264 @ 0xb6f9a0] non-existing PPS 0 referenced
[h264 @ 0xb6f9a0] decode_slice_header error
[h264 @ 0xb6f9a0] no frame!
[h264 @ 0xb6f9a0] non-existing PPS referenced
[h264 @ 0xb6f9a0] non-existing PPS 0 referenced
[h264 @ 0xb6f9a0] decode_slice_header error
[h264 @ 0xb6f9a0] no frame!
[h264 @ 0xb6f9a0] non-existing PPS referenced
[h264 @ 0xb6f9a0] non-existing PPS 0 referenced
[h264 @ 0xb6f9a0] decode_slice_header error
[h264 @ 0xb6f9a0] no frame!
[h264 @ 0xb6f9a0] non-existing PPS referenced
[h264 @ 0xb6f9a0] non-existing PPS 0 referenced
[h264 @ 0xb6f9a0] decode_slice_header error
[h264 @ 0xb6f9a0] no frame!
[h264 @ 0xb6f9a0] non-existing PPS referenced
[h264 @ 0xb6f9a0] non-existing PPS 0 referenced
[h264 @ 0xb6f9a0] decode_slice_header error
[h264 @ 0xb6f9a0] no frame!
[h264 @ 0xb6f9a0] non-existing PPS referenced
[h264 @ 0xb6f9a0] non-existing PPS 0 referenced
[h264 @ 0xb6f9a0] decode_slice_header error
[h264 @ 0xb6f9a0] no frame!
[h264 @ 0xb6f9a0] non-existing PPS referenced
[h264 @ 0xb6f9a0] non-existing PPS 0 referenced
[h264 @ 0xb6f9a0] decode_slice_header error
[h264 @ 0xb6f9a0] no frame!
[h264 @ 0xb6f9a0] non-existing PPS referenced
[h264 @ 0xb6f9a0] non-existing PPS 0 referenced
[h264 @ 0xb6f9a0] decode_slice_header error
[h264 @ 0xb6f9a0] no frame!
[h264 @ 0xb6f9a0] non-existing PPS referenced
[h264 @ 0xb6f9a0] non-existing PPS 0 referenced
[h264 @ 0xb6f9a0] decode_slice_header error
[h264 @ 0xb6f9a0] no frame!
[h264 @ 0xb6f9a0] non-existing PPS referenced
[h264 @ 0xb6f9a0] non-existing PPS 0 referenced
[h264 @ 0xb6f9a0] decode_slice_header error
[h264 @ 0xb6f9a0] no frame!
[h264 @ 0xb6f9a0] non-existing PPS referenced
[h264 @ 0xb6f9a0] non-existing PPS 0 referenced
[h264 @ 0xb6f9a0] decode_slice_header error
[h264 @ 0xb6f9a0] no frame!
[h264 @ 0xb6f9a0] non-existing PPS referenced
[h264 @ 0xb6f9a0] non-existing PPS 0 referenced
[h264 @ 0xb6f9a0] decode_slice_header error
[h264 @ 0xb6f9a0] no frame!
[h264 @ 0xb6f9a0] non-existing PPS referenced
[h264 @ 0xb6f9a0] non-existing PPS 0 referenced
[h264 @ 0xb6f9a0] decode_slice_header error
[h264 @ 0xb6f9a0] no frame!
[mpegts @ 0xb82480] max_analyze_duration 5000000 reached at 5013333 microseconds
[mpegts @ 0xb82480] Estimating duration from bitrate, this may be inaccurate
Input #0, mpegts, from 'http://109.175.10.98:4022/udp/225.10.20.24:5004':
Duration: N/A, start: 36687.054867, bitrate: 73 kb/s
Program 1
Stream #0:0[0x46]: Video: h264 (High) ([27][0][0][0] / 0x001B), yuv420p, 720x576 [SAR 16:15 DAR 4:3], 25 fps, 25 tbr, 90k tbn, 50 tbc
Stream #0:1[0x47](eng): Audio: aac ([15][0][0][0] / 0x000F), 48000 Hz, stereo, fltp, 73 kb/s
At least one output file must be specified
<<

Illico

User avatar

DLNA master

Posts: 4649

Joined: Fri Jul 23, 2010 8:08 am

Location: France

Post Mon Sep 23, 2013 5:51 pm

Re: help needed

...and what is your TV model? What is the profile used on serviio console ?
<<

Iveky

User avatar

DLNA master

Posts: 329

Joined: Thu Jan 31, 2013 5:17 pm

Location: Split, Croatia

Post Mon Sep 23, 2013 7:40 pm

Re: help needed

solved. after serviio restart it appeared in list. but not immediately.... it took some time too. dunno why.

Return to Video streams

Who is online

Users browsing this forum: No registered users and 3 guests

Powered by phpBB © 2000, 2002, 2005, 2007 phpBB Group.
Designed by ST Software for PTF.