FAQ  •  Register  •  Login

Can not watch this stream

<<

blase

Streaming enthusiast

Posts: 33

Joined: Thu Jan 19, 2012 8:55 pm

Post Wed Jun 11, 2014 7:47 pm

Can not watch this stream

I can not get it to look this stream

  Code:
rtmp://flash.cdn.deluxemusic.tv/deluxemusic.tv-live/web_850.stream


In VLC looks perfectly but seviio is impossible, given this errro

  Code:
2014-06-11 21:40:23,102 WARN  [FeedUpdaterThread] Failed to retrieve online item information for rtmp://flash.cdn.deluxemusic.tv/deluxemusic.tv-live/web_850.stream. It might not play.
java.io.IOException: org.serviio.library.local.metadata.extractor.InvalidMediaFormatException: Unknown video file type.
        at org.serviio.library.online.metadata.FeedUpdaterThread.retrieveMetadata(FeedUpdaterThread.java:320)
        at org.serviio.library.online.metadata.FeedUpdaterThread.retrieveTechnicalMetadata(FeedUpdaterThread.java:237)
        at org.serviio.library.online.metadata.FeedUpdaterThread.run(FeedUpdaterThread.java:116)
Caused by: org.serviio.library.local.metadata.extractor.InvalidMediaFormatException: Unknown video file type.
        at org.serviio.library.metadata.FFmpegMetadataRetriever.validateMandatoryMetadata(FFmpegMetadataRetriever.java:467)
        at org.serviio.library.metadata.FFmpegMetadataRetriever.retrieveMetadata(FFmpegMetadataRetriever.java:100)
        at org.serviio.library.metadata.FFmpegMetadataRetriever.retrieveOnlineMetadata(FFmpegMetadataRetriever.java:138)
        at org.serviio.library.online.metadata.FeedUpdaterThread.retrieveMetadata(FeedUpdaterThread.java:299)
        ... 2 more


  Code:
 ffmpeg -i rtmp://flash.cdn.deluxemusic.tv/deluxemusic.tv-live/web_850.stream
ffmpeg version 2.0.2 Copyright (c) 2000-2013 the FFmpeg developers
  built on Apr  8 2014 20:49:59 with gcc 4.6.4 (Linaro GCC branch-4.6.4. Marvell GCC Dev 201310-2126.3d181f66 64K MAXPAGESIZE ALIGN)
  configuration: --prefix=/usr/syno --incdir='${prefix}/include/ffmpeg' --arch=arm --target-os=linux --cross-prefix=/usr/local/arm-marvell-linux-gnueabi/bin/arm-marvell-linux-gnueabi- --enable-cross-compile --enable-optimizations --enable-pic --enable-gpl --enable-shared --disable-static --enable-version3 --enable-nonfree --enable-libfaac --enable-encoders --enable-pthreads --disable-bzlib --disable-protocol=rtp --disable-muxer=image2 --disable-muxer=image2pipe --disable-swscale-alpha --disable-ffserver --disable-ffplay --disable-devices --disable-bzlib --disable-altivec --enable-libopencore-amrnb --enable-libopencore-amrwb --enable-libmp3lame --disable-decoder=amrnb --disable-encoder=zmbv --disable-encoder=dca --disable-encoder=ac3 --disable-encoder=ac3_fixed --disable-encoder=eac3 --disable-decoder=dca --disable-decoder=eac3 --disable-decoder=truehd --cc=/usr/local/arm-marvell-linux-gnueabi/bin/arm-marvell-linux-gnueabi-ccache-gcc
  libavutil      52. 38.100 / 52. 38.100
  libavcodec     55. 18.102 / 55. 18.102
  libavformat    55. 12.100 / 55. 12.100
  libavdevice    55.  3.100 / 55.  3.100
  libavfilter     3. 79.101 /  3. 79.101
  libswscale      2.  3.100 /  2.  3.100
  libswresample   0. 17.102 /  0. 17.102
  libpostproc    52.  3.100 / 52.  3.100
Input #0, flv, from 'rtmp://flash.cdn.deluxemusic.tv/deluxemusic.tv-live/web_850.stream':
  Metadata:
    avcprofile      : 77
    avclevel        : 31
    frameWidth      : 720
    frameHeight     : 406
    displayWidth    : 720
    displayHeight   : 406
    audiochannels   : 2
  Duration: N/A, start: 0.000000, bitrate: 1294 kb/s
    Stream #0:0: Video: h264 (Main), yuv420p, 720x406 [SAR 1:1 DAR 360:203], 1199 kb/s, 25 tbr, 1k tbn, 50 tbc
    Stream #0:1: Audio: aac, 48000 Hz, stereo, fltp, 95 kb/s
At least one output file must be specified


Any ideas to enlighten me
<<

mirchy

Streaming enthusiast

Posts: 36

Joined: Sun Jun 17, 2012 3:10 am

Post Fri Jun 13, 2014 12:00 pm

Re: Can not watch this stream

post the original link pls
<<

blase

Streaming enthusiast

Posts: 33

Joined: Thu Jan 19, 2012 8:55 pm

Post Mon Jun 16, 2014 8:27 am

Re: Can not watch this stream

This the original

  Code:
rtmp://flash.cdn.deluxemusic.tv/deluxemusic.tv-live/web_850.stream

Return to Video streams

Who is online

Users browsing this forum: No registered users and 2 guests

cron
Powered by phpBB © 2000, 2002, 2005, 2007 phpBB Group.
Designed by ST Software for PTF.