FAQ  •  Register  •  Login

No Subtitles in Mediabrowser and VLC for Android

<<

rOOt@LX

User avatar

Serviio newbie

Posts: 7

Joined: Sat Aug 05, 2017 6:04 pm

Post Sat Aug 05, 2017 7:02 pm

No Subtitles in Mediabrowser and VLC for Android

Subtitles not shown on Serviio MediaBrowser and VLC for Android

Hi everybody.
I`m having a little Problem with Serviio, unable to find the solution by myself.
First sorry for my bad english, hope you will understand me.


I`m using the current and licensed Version Serviio 1.9 running on CentOS 7, up to date.
Using Serviio on my Samsung TV UE40ES5700 works fine, without any Problems, running like hell :D
(If exist) Burned in Subtitles are shown as expected, no Problems at all. Everythimg works like it should.

But if the same Movies is watched with the Mediabrowser, or with VLC for Android (Serviio is shown there similar to the TV), subtitles were not shown.
By watching the same Movie with VLC for Android using the smb-share, subtitles are present and working fine.

First i checked the Serviio settings under Delivery/Subtitles.
Enable subtitles is active
Try to automatically detect subtitle character encoding is active / UTF-8
Enable burned-in subtitles is active

Checking language settings
Preferred language of audio and subtitles are ger,german,de,deu (because i`m German and that is the language the subtitles are burned in)

Transcoding is enabled

Then go to the Movie checking the file.

Here is the output of Mediainfo:
General
Unique ID : 180655008678046434953515134016993944333 (0x87E8E39ADB06FAFD9D7E850FAB28E30D)
Complete name : ../GoT - S06E01.mkv
Format : Matroska
Format version : Version 4 / Version 2
File size : 1.20 GiB
Duration : 50mn 4s
Overall bit rate : 3 425 Kbps
Movie name : GoT - S06E01
Encoded date : UTC 2017-03-17T11:41:14Z
Writing application : HandBrake 1.0.3 2017022500
Writing library : Lavf57.7.2 / Lavf57.7.2

Video
ID : 1
Format : AVC
Format/Info : Advanced Video Codec
Format profile : High@L3.1
Format settings, CABAC : Yes
Format settings, ReFrames : 5 frames
Codec ID : V_MPEG4/ISO/AVC
Duration : 50mn 4s
Width : 1 280 pixels
Height : 720 pixels
Display aspect ratio : 16:9
Frame rate mode : Constant
Frame rate : 23.976 (24000/1001) fps
Color space : YUV
Chroma subsampling : 4:2:0
Bit depth : 8 bits
Scan type : Progressive
Writing library : x264 core 148 r2643 5c65704
Encoding settings : cabac=1 / ref=5 / deblock=1:0:0 / analyse=0x3:0x113 / me=umh / subme=8 / psy=1 / psy_rd=1,00:0,00 / mixed_ref=1 / me_range=16 / chroma_me=1 / trellis=1 / 8x8dct=1 / cqm=0 / deadzone=21,11 / fast_pskip=1 / chroma_qp_offset=-2 / threads=3 / lookahead_threads=1 / sliced_threads=0 / nr=0 / decimate=1 / interlaced=0 / bluray_compat=0 / constrained_intra=0 / bframes=3 / b_pyramid=2 / b_adapt=2 / b_bias=0 / direct=3 / weightb=1 / open_gop=0 / weightp=2 / keyint=240 / keyint_min=24 / scenecut=40 / intra_refresh=0 / rc_lookahead=50 / rc=crf / mbtree=1 / crf=19,0 / qcomp=0,60 / qpmin=0 / qpmax=69 / qpstep=4 / vbv_maxrate=17500 / vbv_bufsize=17500 / crf_max=0,0 / nal_hrd=none / filler=0 / ip_ratio=1,40 / aq=1:1,00
Default : Yes
Forced : No
Color range : Limited
Color primaries : BT.709
Transfer characteristics : BT.709
Matrix coefficients : BT.709

Audio #1
ID : 2
Format : AAC
Format/Info : Advanced Audio Codec
Format profile : LC
Codec ID : A_AAC
Duration : 50mn 4s
Channel(s) : 2 channels
Channel positions : Front: L R
Sampling rate : 48.0 KHz
Frame rate : 46.875 fps (1024 spf)
Compression mode : Lossy
Delay relative to video : -21ms
Title : Stereo
Language : German
Default : Yes
Forced : No

Audio #2
ID : 3
Format : AC-3
Format/Info : Audio Coding 3
Mode extension : CM (complete main)
Format settings, Endianness : Big
Codec ID : A_AC3
Duration : 50mn 4s
Bit rate mode : Constant
Bit rate : 448 Kbps
Channel(s) : 6 channels
Channel positions : Front: L C R, Side: L R, LFE
Sampling rate : 48.0 KHz
Frame rate : 31.250 fps (1536 spf)
Compression mode : Lossy
Stream size : 160 MiB (13%)
Title : Surround
Language : German
Default : No
Forced : No

Text
ID : 4
Format : ASS
Codec ID : S_TEXT/ASS
Codec ID/Info : Advanced Sub Station Alpha
Compression mode : Lossless
Language : German
Default : Yes
Forced : Yes

Menu
00:00:00.000 : :00:00:00.000
00:01:56.241 : :00:01:56.116
00:09:34.616 : :00:09:34.615
00:19:05.603 : :00:19:05.602
00:29:02.366 : :00:29:02.365
00:35:32.464 : :00:35:32.463
00:41:22.063 : :00:41:22.062
00:48:42.461 : :00:48:42.336
00:50:01.957 : :00:50:01.873


So for now, i have no idea what the reason is, subtitles were not shown playing the files with the Mediabroser or VLC for Android.
Any help is appreciated.
There are only 10 types of people in the world: Those who understand binary and those who don`t ....
<<

zip

User avatar

Serviio developer / Site Admin

Posts: 16372

Joined: Sat Oct 24, 2009 12:24 pm

Location: London, UK

Post Sun Aug 06, 2017 2:29 pm

Re: No Subtitles in Mediabrowser and VLC for Android

Please post ffmpeg -i for the file. And also detailed log when playing the file in MB.
<<

rOOt@LX

User avatar

Serviio newbie

Posts: 7

Joined: Sat Aug 05, 2017 6:04 pm

Post Sun Aug 06, 2017 7:44 pm

Re: No Subtitles in Mediabrowser and VLC for Android

ffmpeg output of the file:
ffmpeg -i "GoT - S06E01.mkv"
ffmpeg version 2.6.8 Copyright (c) 2000-2016 the FFmpeg developers
built with gcc 4.8.5 (GCC) 20150623 (Red Hat 4.8.5-4)
configuration: --prefix=/usr --bindir=/usr/bin --datadir=/usr/share/ffmpeg --incdir=/usr/include/ffmpeg --libdir=/usr/lib64 --mandir=/usr/share/man --arch=x86_64 --optflags='-O2 -g -pipe -Wall -Wp,-D_FORTIFY_SOURCE=2 -fexceptions -fstack-protector-strong --param=ssp-buffer-size=4 -grecord-gcc-switches -m64 -mtune=generic' --enable-bzlib --disable-crystalhd --enable-gnutls --enable-ladspa --enable-libass --enable-libcdio --enable-libdc1394 --enable-libfaac --enable-nonfree --enable-libfdk-aac --enable-nonfree --disable-indev=jack --enable-libfreetype --enable-libgsm --enable-libmp3lame --enable-openal --enable-libopenjpeg --enable-libopus --enable-libpulse --enable-libschroedinger --enable-libsoxr --enable-libspeex --enable-libtheora --enable-libvorbis --enable-libv4l2 --enable-libx264 --enable-libx265 --enable-libxvid --enable-x11grab --enable-avfilter --enable-avresample --enable-postproc --enable-pthreads --disable-static --enable-shared --enable-gpl --disable-debug --disable-stripping --shlibdir=/usr/lib64 --enable-runtime-cpudetect
libavutil 54. 20.100 / 54. 20.100
libavcodec 56. 26.100 / 56. 26.100
libavformat 56. 25.101 / 56. 25.101
libavdevice 56. 4.100 / 56. 4.100
libavfilter 5. 11.102 / 5. 11.102
libavresample 2. 1. 0 / 2. 1. 0
libswscale 3. 1.101 / 3. 1.101
libswresample 1. 1.100 / 1. 1.100
libpostproc 53. 3.100 / 53. 3.100
Input #0, matroska,webm, from 'GoT - S06E01.mkv':
Metadata:
title : GoT - S06E01
CREATION_TIME : 2017-03-17T11:41:14Z
ENCODER : Lavf57.7.2
Duration: 00:50:04.18, start: 0.000000, bitrate: 3424 kb/s
Chapter #0:0: start 0.000000, end 116.241000
Metadata:
title : 00:00:00.000
Chapter #0:1: start 116.241000, end 574.616000
Metadata:
title : 00:01:56.116
Chapter #0:2: start 574.616000, end 1145.603000
Metadata:
title : 00:09:34.615
Chapter #0:3: start 1145.603000, end 1742.366000
Metadata:
title : 00:19:05.602
Chapter #0:4: start 1742.366000, end 2132.464000
Metadata:
title : 00:29:02.365
Chapter #0:5: start 2132.464000, end 2482.063000
Metadata:
title : 00:35:32.463
Chapter #0:6: start 2482.063000, end 2922.461000
Metadata:
title : 00:41:22.062
Chapter #0:7: start 2922.461000, end 3001.957000
Metadata:
title : 00:48:42.336
Chapter #0:8: start 3001.957000, end 3004.043000
Metadata:
title : 00:50:01.873
Stream #0:0: Video: h264 (High), yuv420p(tv, bt709), 1280x720 [SAR 1:1 DAR 16:9], 23.98 fps, 23.98 tbr, 1k tbn, 180k tbc (default)
Stream #0:1(ger): Audio: aac (LC), 48000 Hz, stereo, fltp (default)
Metadata:
title : Stereo
Stream #0:2(ger): Audio: ac3, 48000 Hz, 5.1(side), fltp, 448 kb/s
Metadata:
title : Surround
Stream #0:3(ger): Subtitle: ass (default) (forced)

Serviio-Logfile in Debug-mode:

[EventDispatcher] Event notification sent and received successfully
2017-08-06 21:28:52,604 DEBUG [CDSRetrieveMediaServerResource] GET http://odin:23424/cds/resource/19220/ME ... 56aa948e90 HTTP/1.1, headers = [host: odin:23424,connection: keep-alive,user-agent: Mozilla/5.0 (Windows NT 10.0; Win64; x64) AppleWebKit/537.36 (KHTML, like Gecko) Chrome/60.0.3112.90 Safari/537.36,accept: */*,dnt: 1,referer: http://odin:23424/mediabrowser/,accept-encoding: gzip, deflate,accept-language: de-DE,de;q=0.8,en-US;q=0.6,en;q=0.4]
2017-08-06 21:28:52,604 DEBUG [CDSRetrieveMediaServerResource] Creating client with id '192.168.178.27' and name 'MediaBrowser'
2017-08-06 21:28:52,605 DEBUG [ResourceDeliveryProcessor] Resource request accepted. Using client 'Identifier=192.168.178.27, Profile=HTML5, Name=MediaBrowser'
2017-08-06 21:28:52,605 DEBUG [ResourceDeliveryProcessor] Request for resource 19220 and type 'MEDIA_ITEM' received
2017-08-06 21:28:52,605 DEBUG [MediaResourceRetrievalStrategy] Getting information about media item 19220 (local)
2017-08-06 21:28:52,605 DEBUG [MediaItemDAOImpl] Reading a MediaItem (id = 19220)
2017-08-06 21:28:52,605 DEBUG [VideoDAOImpl] Reading a Video (id = 19220)
2017-08-06 21:28:52,606 DEBUG [VideoDeliveryEngine] Retrieving resource information for item 19220, format HLS and profile HTML5
2017-08-06 21:28:52,616 DEBUG [AbstractAVTranscodingDeliveryEngine] Getting media info for transcoded version of file GoT - S06E01.mkv
2017-08-06 21:28:52,617 DEBUG [VideoDeliveryEngine] Found Format profile for transcoded file "GoT - S06E01.mkv": HLS
2017-08-06 21:28:52,617 DEBUG [VideoDeliveryEngine] Found Format profile for transcoded file "GoT - S06E01.mkv": HLS
2017-08-06 21:28:52,617 DEBUG [VideoDeliveryEngine] Found Format profile for transcoded file "GoT - S06E01.mkv": HLS
2017-08-06 21:28:52,617 DEBUG [MediaResourceRetrievalStrategy] Getting information about media item 19220 (local)
2017-08-06 21:28:52,617 DEBUG [MediaItemDAOImpl] Reading a MediaItem (id = 19220)
2017-08-06 21:28:52,617 DEBUG [VideoDAOImpl] Reading a Video (id = 19220)
2017-08-06 21:28:52,618 DEBUG [VideoDeliveryEngine] Delivering item '19220' for client 'Identifier=192.168.178.27, Profile=HTML5, Name=MediaBrowser'
2017-08-06 21:28:52,621 DEBUG [VideoDeliveryEngine] Delivering file 'GoT - S06E01.mkv' using transcoding
2017-08-06 21:28:52,622 DEBUG [AbstractAVTranscodingDeliveryEngine] A suitable transcoding job already exists, re-use it for client 'Identifier=192.168.178.27, Profile=HTML5, Name=MediaBrowser'
2017-08-06 21:28:52,623 DEBUG [FileBasedTranscodingDeliveryStrategy] Sending transcoding stream
2017-08-06 21:28:52,624 DEBUG [VideoDeliveryEngine] Found Format profile for transcoded file "GoT - S06E01.mkv": HLS
2017-08-06 21:28:52,624 DEBUG [VideoDeliveryEngine] Found Format profile for transcoded file "GoT - S06E01.mkv": HLS
2017-08-06 21:28:52,624 DEBUG [VideoDeliveryEngine] Found Format profile for transcoded file "GoT - S06E01.mkv": HLS
2017-08-06 21:28:52,624 DEBUG [GETMethodProcessor] Entity will be consumed till the end
2017-08-06 21:28:52,624 DEBUG [GETMethodProcessor] Stream entity has length: -1
2017-08-06 21:28:52,636 DEBUG [CDSRetrieveMediaServerResource] GET http://odin:23424/cds/resource/19220/SE ... 56aa948e90 HTTP/1.1, headers = [host: odin:23424,connection: keep-alive,user-agent: Mozilla/5.0 (Windows NT 10.0; Win64; x64) AppleWebKit/537.36 (KHTML, like Gecko) Chrome/60.0.3112.90 Safari/537.36,accept: */*,dnt: 1,referer: http://odin:23424/mediabrowser/,accept-encoding: gzip, deflate,accept-language: de-DE,de;q=0.8,en-US;q=0.6,en;q=0.4]
2017-08-06 21:28:52,636 DEBUG [CDSRetrieveMediaServerResource] Creating client with id '192.168.178.27' and name 'MediaBrowser'
2017-08-06 21:28:52,636 DEBUG [ResourceDeliveryProcessor] Resource request accepted. Using client 'Identifier=192.168.178.27, Profile=HTML5, Name=MediaBrowser'
2017-08-06 21:28:52,636 DEBUG [ResourceDeliveryProcessor] Request for resource 19220 and type 'SEGMENT' received
2017-08-06 21:28:52,636 DEBUG [SegmentRetrievalStrategy] Retrieving info of Segment for media item with id 19220: 19220/SEGMENT/transcoding-temp-a50b07e1ddbc6d81a9601f98bedf1dc5.stf/segment00024.ts
2017-08-06 21:28:52,636 DEBUG [SegmentRetrievalStrategy] Retrieving Segment for media item with id 19220: 19220/SEGMENT/transcoding-temp-a50b07e1ddbc6d81a9601f98bedf1dc5.stf/segment00024.ts
2017-08-06 21:28:52,636 DEBUG [GETMethodProcessor] Stream entity has length: 1609280
2017-08-06 21:28:52,727 DEBUG [CDSRetrieveMediaServerResource] GET http://odin:23424/cds/resource/19220/SE ... 56aa948e90 HTTP/1.1, headers = [host: odin:23424,connection: keep-alive,user-agent: Mozilla/5.0 (Windows NT 10.0; Win64; x64) AppleWebKit/537.36 (KHTML, like Gecko) Chrome/60.0.3112.90 Safari/537.36,accept: */*,dnt: 1,referer: http://odin:23424/mediabrowser/,accept-encoding: gzip, deflate,accept-language: de-DE,de;q=0.8,en-US;q=0.6,en;q=0.4]
2017-08-06 21:28:52,727 DEBUG [CDSRetrieveMediaServerResource] Creating client with id '192.168.178.27' and name 'MediaBrowser'
2017-08-06 21:28:52,727 DEBUG [ResourceDeliveryProcessor] Resource request accepted. Using client 'Identifier=192.168.178.27, Profile=HTML5, Name=MediaBrowser'
2017-08-06 21:28:52,727 DEBUG [ResourceDeliveryProcessor] Request for resource 19220 and type 'SEGMENT' received
2017-08-06 21:28:52,727 DEBUG [SegmentRetrievalStrategy] Retrieving info of Segment for media item with id 19220: 19220/SEGMENT/transcoding-temp-a50b07e1ddbc6d81a9601f98bedf1dc5.stf/segment00025.ts
2017-08-06 21:28:52,727 DEBUG [SegmentRetrievalStrategy] Retrieving Segment for media item with id 19220: 19220/SEGMENT/transcoding-temp-a50b07e1ddbc6d81a9601f98bedf1dc5.stf/segment00025.ts
2017-08-06 21:28:52,727 DEBUG [GETMethodProcessor] Stream entity has length: 1598000
2017-08-06 21:28:55,732 DEBUG [SearchManager] Committing search index
2017-08-06 21:29:02,609 DEBUG [CDSRetrieveMediaServerResource] GET http://odin:23424/cds/resource/19220/ME ... 56aa948e90 HTTP/1.1, headers = [host: odin:23424,connection: keep-alive,user-agent: Mozilla/5.0 (Windows NT 10.0; Win64; x64) AppleWebKit/537.36 (KHTML, like Gecko) Chrome/60.0.3112.90 Safari/537.36,accept: */*,dnt: 1,referer: http://odin:23424/mediabrowser/,accept-encoding: gzip, deflate,accept-language: de-DE,de;q=0.8,en-US;q=0.6,en;q=0.4]
2017-08-06 21:29:02,609 DEBUG [CDSRetrieveMediaServerResource] Creating client with id '192.168.178.27' and name 'MediaBrowser'
2017-08-06 21:29:02,609 DEBUG [ResourceDeliveryProcessor] Resource request accepted. Using client 'Identifier=192.168.178.27, Profile=HTML5, Name=MediaBrowser'
2017-08-06 21:29:02,609 DEBUG [ResourceDeliveryProcessor] Request for resource 19220 and type 'MEDIA_ITEM' received
2017-08-06 21:29:02,609 DEBUG [MediaResourceRetrievalStrategy] Getting information about media item 19220 (local)
2017-08-06 21:29:02,609 DEBUG [MediaItemDAOImpl] Reading a MediaItem (id = 19220)
2017-08-06 21:29:02,610 DEBUG [VideoDAOImpl] Reading a Video (id = 19220)
2017-08-06 21:29:02,610 DEBUG [VideoDeliveryEngine] Retrieving resource information for item 19220, format HLS and profile HTML5
2017-08-06 21:29:02,612 DEBUG [AbstractAVTranscodingDeliveryEngine] Getting media info for transcoded version of file GoT - S06E01.mkv
2017-08-06 21:29:02,612 DEBUG [VideoDeliveryEngine] Found Format profile for transcoded file "GoT - S06E01.mkv": HLS
2017-08-06 21:29:02,612 DEBUG [VideoDeliveryEngine] Found Format profile for transcoded file "GoT - S06E01.mkv": HLS
2017-08-06 21:29:02,612 DEBUG [VideoDeliveryEngine] Found Format profile for transcoded file "GoT - S06E01.mkv": HLS
2017-08-06 21:29:02,612 DEBUG [MediaResourceRetrievalStrategy] Getting information about media item 19220 (local)
2017-08-06 21:29:02,612 DEBUG [MediaItemDAOImpl] Reading a MediaItem (id = 19220)
2017-08-06 21:29:02,613 DEBUG [VideoDAOImpl] Reading a Video (id = 19220)


Complete Logfiles are stored here https://c.1und1.de/2516047/2zIwZ9PVRIixWq94dip0wg for download, because they are to big to post them here.
The lines above are stored in serviio.log.1

Thank you for your efforts!
There are only 10 types of people in the world: Those who understand binary and those who don`t ....
<<

zip

User avatar

Serviio developer / Site Admin

Posts: 16372

Joined: Sat Oct 24, 2009 12:24 pm

Location: London, UK

Post Tue Aug 08, 2017 9:10 pm

Re: No Subtitles in Mediabrowser and VLC for Android

Did you check the ''Enable extraction of text based subtitles' option on the subtitles tab in console?
<<

rOOt@LX

User avatar

Serviio newbie

Posts: 7

Joined: Sat Aug 05, 2017 6:04 pm

Post Thu Aug 10, 2017 5:09 am

Re: No Subtitles in Mediabrowser and VLC for Android

Meanwhile i rebuild Version 1.9 in a virtual machine on Ubuntu Server 16.04.3, Windows 7 and an fresh installed CentOS 7, in all cases no forced Subs in the MB, watching the Movie with a Windows and a Linux Client. I've downloaded some files with forced subs from the List of test media files http://forum.serviio.org/viewtopic.php?f=5&t=608, watching them in the MB without success, no forced subs visible.
Checked ''Enable extraction of text based subtitles" option on the subtitles tab in console. After this the CPU consumption is near 100% ( caused by ffmpeg processes) and i could choose between none and default subs. Checked default subs without a change in behaviour.
Found another issue (hlsjs: Video file not found) as described here http://forum.serviio.org/viewtopic.php?f=5&t=23938, so i rolled back to Version 1.8, same issue there.
It's enough to drive you mad! :roll:
There are only 10 types of people in the world: Those who understand binary and those who don`t ....
<<

rOOt@LX

User avatar

Serviio newbie

Posts: 7

Joined: Sat Aug 05, 2017 6:04 pm

Post Thu Aug 10, 2017 8:15 am

Re: No Subtitles in Mediabrowser and VLC for Android

Some good news so far.
Fresh installed Debian in a Virtual Machine running ffmpeg version 3.2.5-1 (instead 2.6.8 on CentOS7) with checked ''Enable extraction of text based subtitles" option on the subtitles tab in console shows burned in subs in MB an no "hlsjs: Video file not found" @ this time :D
I will change the OS my Home server is working with and will report.
There are only 10 types of people in the world: Those who understand binary and those who don`t ....
<<

rOOt@LX

User avatar

Serviio newbie

Posts: 7

Joined: Sat Aug 05, 2017 6:04 pm

Post Sun Aug 13, 2017 9:56 am

Re: No Subtitles in Mediabrowser and VLC for Android

Tried now Serviio 1.9 with Debian 9.1 with build in ffmpeg version 3.2.5-1 and burned in subtitles are now shown as expected with the checked option ''Enable extraction of text based subtitles".
Still having the Problem with the MB "hlsjs: Video file not found" on a large amount of videofiles. Many files must be started a second time in MB to solve this.

Working now with Version 1.8 again. No Problems there with "hlsjs: Video file not found" and also burned in Subtitles were shown.

At last there is only one issue with Android VLC, that tried to play Videofiles with burned in subs and active Option ''Enable extraction of text based subtitles" as a Audiofile. Not shure if this a Bug in VLC or not :(
I use the smb:share to play this files.

Regards
There are only 10 types of people in the world: Those who understand binary and those who don`t ....
<<

zip

User avatar

Serviio developer / Site Admin

Posts: 16372

Joined: Sat Oct 24, 2009 12:24 pm

Location: London, UK

Post Tue Aug 15, 2017 12:20 pm

Re: No Subtitles in Mediabrowser and VLC for Android

1.8 was using Flash player, 1.9 uses HTML5, so it transcodes to a different format.

Detailed logs of when playing the file with 1.9 might help.
<<

rOOt@LX

User avatar

Serviio newbie

Posts: 7

Joined: Sat Aug 05, 2017 6:04 pm

Post Tue Aug 15, 2017 7:01 pm

Re: No Subtitles in Mediabrowser and VLC for Android

Ok, i've updated now from Version 1.8 to 1.9, instead a new install. Movies in MB stating now correctly, hlsjs: Video file not found seems to be gone :D
This is the log if VLC for Android playing a Video with burned in Subs:

2017-08-15 20:38:47,587 DEBUG [ServiioHttpService] Incoming request from /192.168.178.25:33004: POST /serviceControl HTTP/1.1, head$
2017-08-15 20:38:47,587 DEBUG [RendererDAOImpl] Reading a Renderer with ip address 192.168.178.25
2017-08-15 20:38:47,588 DEBUG [ServiceControlRequestHandler] ServiceControl request received for action '"urn:schemas-upnp-org:serv$
2017-08-15 20:38:47,588 DEBUG [RendererDAOImpl] Reading a Renderer with ip address 192.168.178.25
2017-08-15 20:38:47,589 DEBUG [RendererDAOImpl] Reading a Renderer with ip address 192.168.178.25
2017-08-15 20:38:47,596 DEBUG [ContentDirectory] Browse() called for renderer Unrecognized device (profile 1) with parameters: obje$
2017-08-15 20:38:47,596 DEBUG [AccessGroupDAOImpl] Reading a AccessGroup (id = 1)
2017-08-15 20:38:47,597 DEBUG [LocalContentCacheDecorator] Found entry in the cache (local_default), returning it
2017-08-15 20:38:47,617 DEBUG [ServiceControlRequestHandler] Returning OK SOAP message
2017-08-15 20:38:48,567 DEBUG [ServiioHttpService] Incoming request from /192.168.178.25:33005: POST /serviceControl HTTP/1.1, head$
2017-08-15 20:38:48,567 DEBUG [RendererDAOImpl] Reading a Renderer with ip address 192.168.178.25
2017-08-15 20:38:48,568 DEBUG [ServiceControlRequestHandler] ServiceControl request received for action '"urn:schemas-upnp-org:serv$
2017-08-15 20:38:48,568 DEBUG [RendererDAOImpl] Reading a Renderer with ip address 192.168.178.25
2017-08-15 20:38:48,569 DEBUG [RendererDAOImpl] Reading a Renderer with ip address 192.168.178.25
2017-08-15 20:38:48,595 DEBUG [ContentDirectory] Browse() called for renderer Unrecognized device (profile 1) with parameters: obje$
2017-08-15 20:38:48,595 DEBUG [AccessGroupDAOImpl] Reading a AccessGroup (id = 1)
2017-08-15 20:38:48,596 DEBUG [LocalContentCacheDecorator] Found entry in the cache (local_default), returning it
2017-08-15 20:38:48,740 DEBUG [ServiceControlRequestHandler] Returning OK SOAP message
2017-08-15 20:38:48,903 DEBUG [ServiioHttpService] Incoming request from /192.168.178.25:60404: GET /resource/6377/COVER_IMAGE HTTP$
2017-08-15 20:38:48,903 DEBUG [RendererDAOImpl] Reading a Renderer with ip address 192.168.178.25
2017-08-15 20:38:48,904 DEBUG [RendererDAOImpl] Reading a Renderer with ip address 192.168.178.25
2017-08-15 20:38:48,904 DEBUG [RendererDAOImpl] Reading a Renderer with ip address 192.168.178.25
2017-08-15 20:38:48,905 DEBUG [ResourceDeliveryProcessor] Resource request accepted. Using client 'Identifier=192.168.178.25, Profi$
2017-08-15 20:38:48,915 DEBUG [ResourceDeliveryProcessor] Request for resource 6377 and type 'COVER_IMAGE' received
2017-08-15 20:38:48,915 DEBUG [CoverImageDAOImpl] Reading a CoverImage (id = 6377)
2017-08-15 20:38:48,916 DEBUG [CoverImageRetrievalStrategy] Retrieving info of Cover image with id 6377
2017-08-15 20:38:48,917 DEBUG [CoverImageDAOImpl] Reading a CoverImage (id = 6377)
2017-08-15 20:38:48,917 DEBUG [CoverImageRetrievalStrategy] Retrieving Cover image (SD) with id 6377
2017-08-15 20:38:48,918 DEBUG [GETMethodProcessor] Stream entity has length: 3238
2017-08-15 20:38:48,919 DEBUG [ResourceTransportRequestHandler] HTTP/1.1 200 OK, headers = [[Content-Length: 3238,Content-Type: ima$
2017-08-15 20:38:51,142 DEBUG [MediaItemDAOImpl] Getting counts of media items by type
2017-08-15 20:38:55,822 DEBUG [FeedUpdaterWorker] Checking for new and expired online resources
2017-08-15 20:38:55,822 DEBUG [OnlineRepositoryDAOImpl] Reading all OnlineRepositories
2017-08-15 20:38:56,141 DEBUG [MediaItemDAOImpl] Getting counts of media items by type
2017-08-15 20:38:56,917 DEBUG [ServiioHttpService] Incoming request from /192.168.178.25:33006: GET /resource/60/MEDIA_ITEM/MPEG_PS$
2017-08-15 20:38:56,918 DEBUG [RendererDAOImpl] Reading a Renderer with ip address 192.168.178.25
2017-08-15 20:38:56,918 DEBUG [RendererDAOImpl] Reading a Renderer with ip address 192.168.178.25
2017-08-15 20:38:48,904 DEBUG [RendererDAOImpl] Reading a Renderer with ip address 192.168.178.25
2017-08-15 20:38:48,905 DEBUG [ResourceDeliveryProcessor] Resource request accepted. Using client 'Identifier=192.168.178.25, Profi$
2017-08-15 20:38:48,915 DEBUG [ResourceDeliveryProcessor] Request for resource 6377 and type 'COVER_IMAGE' received
2017-08-15 20:38:48,915 DEBUG [CoverImageDAOImpl] Reading a CoverImage (id = 6377)
2017-08-15 20:38:48,916 DEBUG [CoverImageRetrievalStrategy] Retrieving info of Cover image with id 6377
2017-08-15 20:38:48,917 DEBUG [CoverImageDAOImpl] Reading a CoverImage (id = 6377)
2017-08-15 20:38:48,917 DEBUG [CoverImageRetrievalStrategy] Retrieving Cover image (SD) with id 6377
2017-08-15 20:38:48,918 DEBUG [GETMethodProcessor] Stream entity has length: 3238
2017-08-15 20:38:48,919 DEBUG [ResourceTransportRequestHandler] HTTP/1.1 200 OK, headers = [[Content-Length: 3238,Content-Type: ima$
2017-08-15 20:38:51,142 DEBUG [MediaItemDAOImpl] Getting counts of media items by type
2017-08-15 20:38:55,822 DEBUG [FeedUpdaterWorker] Checking for new and expired online resources
2017-08-15 20:38:55,822 DEBUG [OnlineRepositoryDAOImpl] Reading all OnlineRepositories
2017-08-15 20:38:56,141 DEBUG [MediaItemDAOImpl] Getting counts of media items by type
2017-08-15 20:38:56,917 DEBUG [ServiioHttpService] Incoming request from /192.168.178.25:33006: GET /resource/60/MEDIA_ITEM/MPEG_PS$
2017-08-15 20:38:56,918 DEBUG [RendererDAOImpl] Reading a Renderer with ip address 192.168.178.25
2017-08-15 20:38:56,918 DEBUG [RendererDAOImpl] Reading a Renderer with ip address 192.168.178.25
2017-08-15 20:38:56,939 DEBUG [RendererDAOImpl] Reading a Renderer with ip address 192.168.178.25
2017-08-15 20:38:56,946 DEBUG [ResourceDeliveryProcessor] Resource request accepted. Using client 'Identifier=192.168.178.25, Profi$
2017-08-15 20:38:56,947 DEBUG [ResourceDeliveryProcessor] Request for resource 60 and type 'MEDIA_ITEM' received
2017-08-15 20:38:56,947 DEBUG [MediaResourceRetrievalStrategy] Getting information about media item 60 (local)
2017-08-15 20:38:56,947 DEBUG [MediaItemDAOImpl] Reading a MediaItem (id = 60)
2017-08-15 20:38:56,947 DEBUG [VideoDAOImpl] Reading a Video (id = 60)
2017-08-15 20:38:56,957 DEBUG [VideoDeliveryEngine] Retrieving resource information for item 60, format MPEG_PS_PAL and profile Gen$
2017-08-15 20:38:56,957 DEBUG [SubtitlesService] Found embedded subtitle track: 3 (ger)
2017-08-15 20:38:56,963 DEBUG [SubtitlesService] Found embedded subtitle track: 3 (ger)
2017-08-15 20:38:56,966 DEBUG [AbstractAVTranscodingDeliveryEngine] Getting media info for transcoded version of file GoT - S06E01.$
2017-08-15 20:38:56,967 DEBUG [SubtitlesService] Found embedded subtitle track: 3 (ger)
2017-08-15 20:38:56,974 DEBUG [VideoDeliveryEngine] Found Format profile for transcoded file "GoT - S06E01.mkv": MPEG_PS_PAL
2017-08-15 20:38:56,982 DEBUG [VideoDeliveryEngine] Found Format profile for transcoded file "GoT - S06E01.mkv": MPEG_PS_NTSC
2017-08-15 20:38:56,982 DEBUG [MediaResourceRetrievalStrategy] Getting information about media item 60 (local)
2017-08-15 20:38:56,982 DEBUG [MediaItemDAOImpl] Reading a MediaItem (id = 60)
2017-08-15 20:38:56,983 DEBUG [VideoDAOImpl] Reading a Video (id = 60)
2017-08-15 20:38:56,983 DEBUG [VideoDeliveryEngine] Delivering item '60' for client 'Identifier=192.168.178.25, Profile=Generic DLN$
2017-08-15 20:38:56,984 DEBUG [SubtitlesService] Found embedded subtitle track: 3 (ger)
2017-08-15 20:38:56,987 DEBUG [SubtitlesService] Found embedded subtitle track: 3 (ger)
2017-08-15 20:38:56,987 DEBUG [VideoDeliveryEngine] Delivering file 'GoT - S06E01.mkv' using transcoding
2017-08-15 20:38:56,987 DEBUG [SubtitlesService] Found embedded subtitle track: 3 (ger)
2017-08-15 20:38:56,989 DEBUG [SubtitlesService] Found embedded subtitle track: 3 (ger)
2017-08-15 20:38:56,990 DEBUG [AbstractAVTranscodingDeliveryEngine] A suitable transcoding job already exists, re-use it for client$
2017-08-15 20:38:56,990 DEBUG [FileBasedTranscodingDeliveryStrategy] Sending transcoding stream
2017-08-15 20:38:56,995 DEBUG [SubtitlesService] Found embedded subtitle track: 3 (ger)
2017-08-15 20:38:56,995 DEBUG [VideoDeliveryEngine] Found Format profile for transcoded file "GoT - S06E01.mkv": MPEG_PS_PAL
2017-08-15 20:38:56,995 DEBUG [VideoDeliveryEngine] Found Format profile for transcoded file "GoT - S06E01.mkv": MPEG_PS_NTSC
2017-08-15 20:38:56,995 INFO [PlaybackEventsManager] Playback of media item 60 (GoT - S06E01 [GoT - S06E01.mkv]) has started at 0%$
2017-08-15 20:38:56,996 DEBUG [GETMethodProcessor] Stream entity has length: 50000000000
2017-08-15 20:38:56,996 DEBUG [ResourceTransportRequestHandler] Creating entity with chunked transfer
2017-08-15 20:38:56,996 DEBUG [ResourceTransportRequestHandler] HTTP/1.1 206 Partial Content, headers = [[Content-Type: video/mpeg,$
2017-08-15 20:38:57,066 DEBUG [ServiioHttpService] Incoming request from /192.168.178.25:33007: GET /resource/60/MEDIA_ITEM/MPEG_PS$
2017-08-15 20:38:57,074 DEBUG [RendererDAOImpl] Reading a Renderer with ip address 192.168.178.25
2017-08-15 20:38:57,075 DEBUG [RendererDAOImpl] Reading a Renderer with ip address 192.168.178.25
2017-08-15 20:38:57,076 DEBUG [RendererDAOImpl] Reading a Renderer with ip address 192.168.178.25
2017-08-15 20:38:57,076 DEBUG [ResourceDeliveryProcessor] Resource request accepted. Using client 'Identifier=192.168.178.25, Profi$
2017-08-15 20:38:57,077 DEBUG [ResourceDeliveryProcessor] Request for resource 60 and type 'MEDIA_ITEM' received
2017-08-15 20:38:57,077 DEBUG [MediaResourceRetrievalStrategy] Getting information about media item 60 (local)
2017-08-15 20:38:57,077 DEBUG [MediaItemDAOImpl] Reading a MediaItem (id = 60)
2017-08-15 20:38:57,077 DEBUG [VideoDAOImpl] Reading a Video (id = 60)
2017-08-15 20:38:57,078 DEBUG [VideoDeliveryEngine] Retrieving resource information for item 60, format MPEG_PS_PAL and profile Gen$
2017-08-15 20:38:57,079 DEBUG [SubtitlesService] Found embedded subtitle track: 3 (ger)
2017-08-15 20:38:57,079 DEBUG [SubtitlesService] Found embedded subtitle track: 3 (ger)
2017-08-15 20:38:57,079 DEBUG [AbstractAVTranscodingDeliveryEngine] Getting media info for transcoded version of file GoT - S06E01.$
2017-08-15 20:38:57,080 DEBUG [SubtitlesService] Found embedded subtitle track: 3 (ger)
2017-08-15 20:38:57,080 DEBUG [VideoDeliveryEngine] Found Format profile for transcoded file "GoT - S06E01.mkv": MPEG_PS_PAL
2017-08-15 20:38:57,080 DEBUG [VideoDeliveryEngine] Found Format profile for transcoded file "GoT - S06E01.mkv": MPEG_PS_NTSC
2017-08-15 20:38:57,080 DEBUG [MediaResourceRetrievalStrategy] Getting information about media item 60 (local)
2017-08-15 20:38:57,080 DEBUG [MediaItemDAOImpl] Reading a MediaItem (id = 60)
2017-08-15 20:38:57,081 DEBUG [VideoDAOImpl] Reading a Video (id = 60)
2017-08-15 20:38:57,082 DEBUG [VideoDeliveryEngine] Delivering item '60' for client 'Identifier=192.168.178.25, Profile=Generic DLN$
2017-08-15 20:38:57,082 DEBUG [SubtitlesService] Found embedded subtitle track: 3 (ger)
2017-08-15 20:38:57,083 DEBUG [SubtitlesService] Found embedded subtitle track: 3 (ger)
2017-08-15 20:38:57,083 DEBUG [VideoDeliveryEngine] Delivering file 'GoT - S06E01.mkv' using transcoding
2017-08-15 20:38:57,083 DEBUG [SubtitlesService] Found embedded subtitle track: 3 (ger)
2017-08-15 20:38:57,084 DEBUG [SubtitlesService] Found embedded subtitle track: 3 (ger)
2017-08-15 20:38:57,084 DEBUG [AbstractAVTranscodingDeliveryEngine] A suitable transcoding job already exists, re-use it for client$
2017-08-15 20:38:57,085 DEBUG [FileBasedTranscodingDeliveryStrategy] Sending transcoding stream
2017-08-15 20:38:57,085 DEBUG [SubtitlesService] Found embedded subtitle track: 3 (ger)
2017-08-15 20:38:57,086 DEBUG [VideoDeliveryEngine] Found Format profile for transcoded file "GoT - S06E01.mkv": MPEG_PS_PAL2017-08-15 20:38:57,087 DEBUG [VideoDeliveryEngine] Found Format profile for transcoded file "GoT - S06E01.mkv": MPEG_PS_NTSC
2017-08-15 20:38:57,087 DEBUG [GETMethodProcessor] Stream entity has length: 200000
2017-08-15 20:38:57,087 DEBUG [ResourceTransportRequestHandler] Creating entity with chunked transfer
2017-08-15 20:38:57,087 DEBUG [ResourceTransportRequestHandler] HTTP/1.1 206 Partial Content, headers = [[Content-Type: video/mpeg,$
2017-08-15 20:39:01,142 DEBUG [MediaItemDAOImpl] Getting counts of media items by type
2017-08-15 20:39:06,143 DEBUG [MediaItemDAOImpl] Getting counts of media items by type
2017-08-15 20:39:06,261 DEBUG [RendererSearchSender] Searching for Renderer devices
2017-08-15 20:39:06,271 DEBUG [RendererSearchSender$RendererSearchWorker] Multicasting SSDP M-SEARCH using interface enp2s0 (enp2s0$
2017-08-15 20:39:06,271 DEBUG [RendererSearchSender$RendererSearchWorker] Sending 1 'm-search' messages
2017-08-15 20:39:06,272 DEBUG [DiscoverySSDPMessageListener] Received a valid M-SEARCH message for search target urn:schemas-upnp-o$
2017-08-15 20:39:06,272 DEBUG [DiscoverySSDPMessageListener] Received a valid M-SEARCH message for search target urn:schemas-upnp-o$
2017-08-15 20:39:06,276 DEBUG [DiscoverySSDPMessageListener] Received a valid M-SEARCH message for search target urn:schemas-upnp-o$
2017-08-15 20:39:06,353 DEBUG [RendererSearchSender$RendererSearchWorker] Received search response: location: http://192.168.178.24$
2017-08-15 20:39:06,353 DEBUG [RendererSearchSender$RendererSearchWorker] Received a valid M-SEARCH response from Renderer 0e4e1c01$
2017-08-15 20:39:06,353 DEBUG [RendererManager] Retrieve device description from http://192.168.178.24:7676/smp_18_
2017-08-15 20:39:06,355 DEBUG [RendererSearchSender$RendererSearchWorker] Received search response: location: http://192.168.178.24$
2017-08-15 20:39:06,355 DEBUG [RendererSearchSender$RendererSearchWorker] Received a valid M-SEARCH response from Renderer 0e4e1c01$
2017-08-15 20:39:06,358 DEBUG [RendererSearchSender$RendererSearchWorker] Received search response: location: http://192.168.178.24$
2017-08-15 20:39:06,358 DEBUG [RendererSearchSender$RendererSearchWorker] Received a valid M-SEARCH response from Renderer 0e4e1c01$
2017-08-15 20:39:06,374 DEBUG [RendererManager] Retrieve device description from http://192.168.178.24:7676/smp_18_
2017-08-15 20:39:06,393 DEBUG [RendererManager] Retrieve device description from http://192.168.178.24:7676/smp_18_
2017-08-15 20:39:11,142 DEBUG [MediaItemDAOImpl] Getting counts of media items by type
2017-08-15 20:39:12,283 DEBUG [RendererSearchSender] Finished searching for Renderer devices
2017-08-15 20:39:16,143 DEBUG [MediaItemDAOImpl] Getting counts of media items by type
2017-08-15 20:39:16,638 DEBUG [SearchManager] Committing search index
2017-08-15 20:39:21,142 DEBUG [MediaItemDAOImpl] Getting counts of media items by type
2017-08-15 20:39:26,143 DEBUG [MediaItemDAOImpl] Getting counts of media items by type
2017-08-15 20:39:30,569 DEBUG [DiscoverySSDPMessageListener] Received a valid M-SEARCH message for search target urn:schemas-upnp-o$
2017-08-15 20:39:31,143 DEBUG [MediaItemDAOImpl] Getting counts of media items by type
2017-08-15 20:39:34,846 DEBUG [WebServer] I/O error: Datenübergabe unterbrochen (broken pipe) (Write failed)
2017-08-15 20:39:35,569 DEBUG [DiscoverySSDPMessageListener] Received a valid M-SEARCH message for search target urn:schemas-upnp-o$
2017-08-15 20:39:36,141 DEBUG [MediaItemDAOImpl] Getting counts of media items by type
2017-08-15 20:39:37,483 DEBUG [DiscoverySSDPMessageListener] Received a valid M-SEARCH message for search target urn:dial-multiscre$
2017-08-15 20:39:38,484 DEBUG [DiscoverySSDPMessageListener] Received a valid M-SEARCH message for search target urn:dial-multiscre$
2017-08-15 20:39:39,485 DEBUG [DiscoverySSDPMessageListener] Received a valid M-SEARCH message for search target urn:dial-multiscre$
2017-08-15 20:39:40,486 DEBUG [DiscoverySSDPMessageListener] Received a valid M-SEARCH message for search target urn:dial-multiscre$
2017-08-15 20:39:40,574 DEBUG [DiscoverySSDPMessageListener] Received a valid M-SEARCH message for search target urn:schemas-upnp-o$
2017-08-15 20:39:40,699 DEBUG [ServiioHttpService] Incoming request from /192.168.178.25:33008: POST /serviceControl HTTP/1.1, head$
2017-08-15 20:39:40,699 DEBUG [RendererDAOImpl] Reading a Renderer with ip address 192.168.178.25
2017-08-15 20:39:40,704 DEBUG [ServiceControlRequestHandler] ServiceControl request received for action '"urn:schemas-upnp-org:serv$
2017-08-15 20:39:40,704 DEBUG [RendererDAOImpl] Reading a Renderer with ip address 192.168.178.25
2017-08-15 20:39:40,705 DEBUG [RendererDAOImpl] Reading a Renderer with ip address 192.168.178.25
2017-08-15 20:39:40,709 DEBUG [ContentDirectory] Browse() called for renderer Unrecognized device (profile 1) with parameters: obje$
2017-08-15 20:39:40,711 DEBUG [AccessGroupDAOImpl] Reading a AccessGroup (id = 1)
2017-08-15 20:39:40,712 DEBUG [LocalContentCacheDecorator] Found entry in the cache (local_default), returning it
2017-08-15 20:39:40,712 INFO [PlaybackEventsManager] Playback of media item 60 (GoT - S06E01 [GoT - S06E01.mkv]) has stopped at 1%$
2017-08-15 20:39:40,720 DEBUG [ServiceControlRequestHandler] Returning OK SOAP message
2017-08-15 20:39:41,144 DEBUG [MediaItemDAOImpl] Getting counts of media items by type
2017-08-15 20:39:45,569 DEBUG [DiscoverySSDPMessageListener] Received a valid M-SEARCH message for search target urn:schemas-upnp-o$
2017-08-15 20:39:46,142 DEBUG [MediaItemDAOImpl] Getting counts of media items by type
2017-08-15 20:39:46,638 DEBUG [SearchManager] Committing search index
2017-08-15 20:39:50,569 DEBUG [DiscoverySSDPMessageListener] Received a valid M-SEARCH message for search target urn:schemas-upnp-o$
2017-08-15 20:39:51,141 DEBUG [MediaItemDAOImpl] Getting counts of media items by type
2017-08-15 20:39:55,823 DEBUG [FeedUpdaterWorker] Checking for new and expired online resources
2017-08-15 20:39:55,823 DEBUG [OnlineRepositoryDAOImpl] Reading all OnlineRepositories
2017-08-15 20:39:56,148 DEBUG [MediaItemDAOImpl] Getting counts of media items by type2017-08-15 20:39:59,683 WARN [IndexedDiskCache] Region [subtitles_metadata] Disk cache not shutdown properly, shutting down now.
2017-08-15 20:39:59,684 WARN [IndexedDiskCache] Region [thumbnails] Disk cache not shutdown properly, shutting down now.
2017-08-15 20:39:59,689 WARN [IndexedDiskCache] Region [subtitles] Disk cache not shutdown properly, shutting down now.
2017-08-15 20:39:59,690 WARN [IndexedDiskCache] Region [online_technical_metadata] Disk cache not shutdown properly, shutting down$
2017-08-15 20:39:59,700 WARN [IndexedDiskCache] Region [tokens] Disk cache not shutdown properly, shutting down now.
2017-08-15 20:39:59,708 WARN [ProcessExecutor] Process ffmpeg has a return code of 255! This is a possible error. Detailed output $
frame= 6754 fps= 50 q=1.0 size= 255434kB time=00:04:41.72 bitrate=7427.6kbits/s dup=1 drop=0 speed=2.07x
frame= 6790 fps= 50 q=1.0 size= 255842kB time=00:04:43.22 bitrate=7399.9kbits/s dup=1 drop=0 speed=2.07x
frame= 6801 fps= 50 q=1.0 Lsize= 256028kB time=00:04:43.67 bitrate=7393.6kbits/s dup=1 drop=0 speed=2.07x
video:239547kB audio:13298kB subtitle:0kB other streams:0kB global headers:0kB muxing overhead: 1.259214%
Exiting normally, received signal 15.
2017-08-15 20:39:59,709 DEBUG [TranscodingJobListener] Transcoding finished; successful: false
2017-08-15 20:39:59,800 DEBUG [PipeManager] Stopped PipeProcessingConsumer
2017-08-15 20:39:59,901 DEBUG [PipeManager] Stopped PipeProcessingConsumer
2017-08-15 20:39:59,901 INFO [LibraryOneTimeScanner] Interrupting library scan
2017-08-15 20:39:59,901 DEBUG [LibraryOneTimeScanner] Library scan has been interrupted
2017-08-15 20:39:59,901 INFO [LibraryDeltaScanner] Stopping the library delta scan
2017-08-15 20:39:59,901 DEBUG [FileDeltaPoller] Stopping FileDeltaPoller
2017-08-15 20:39:59,903 DEBUG [FileDeltaWatcher] Stopping FileDeltaWatcher
2017-08-15 20:39:59,905 INFO [PlaylistMaintainerWorker] Finished looking for playlist changes
2017-08-15 20:40:00,006 INFO [FeedUpdaterWorker] Finished looking for online resources information
2017-08-15 20:40:00,006 INFO [RepositoriesStatusCoordinator$RepositoriesStatusThread] Finished checking repositories status
2017-08-15 20:40:00,107 INFO [PluginCompilerThread] Finished looking for plugins
2017-08-15 20:40:00,222 INFO [SearchIndexer] Closing search index writer
2017-08-15 20:40:00,006 INFO [FeedUpdaterWorker] Finished looking for online resources information
2017-08-15 20:40:00,006 INFO [RepositoriesStatusCoordinator$RepositoriesStatusThread] Finished checking repositories status
2017-08-15 20:40:00,107 INFO [PluginCompilerThread] Finished looking for plugins
2017-08-15 20:40:00,222 INFO [SearchIndexer] Closing search index writer
2017-08-15 20:40:00,230 INFO [SearchIndexer] Closing search index writer
2017-08-15 20:40:00,249 INFO [RendererSearchSender] Stopping Renderer searcher process
2017-08-15 20:40:00,251 INFO [AbstractAVTranscodingDeliveryEngine] Cleaning transcode engine and its data
2017-08-15 20:40:00,268 DEBUG [TranscodingJobListener] Deleted temp file '/tmp/Serviio/transcoding-temp-20e1b7e2b69a3e682f351eef710$
2017-08-15 20:40:00,269 DEBUG [AbstractAVTranscodingDeliveryEngine] Deleting temporary transcoded files from: /tmp/Serviio
2017-08-15 20:40:00,270 DEBUG [DiscoveryManager] UPNP device 12d319fc-a960-3e7f-a77e-ba4d14775b40 (192.168.178.20) is unavailable
2017-08-15 20:40:00,270 DEBUG [WebServer] Socket closed
2017-08-15 20:40:00,270 INFO [DiscoveryAdvertisementNotifier] Leaving DiscoveryAdvertisementNotifier
2017-08-15 20:40:00,270 DEBUG [WebServer] Marking the web server for exit
2017-08-15 20:40:00,270 INFO [WebServer] WebServer shutting down
2017-08-15 20:40:00,272 INFO [EventDispatcher] Leaving EventDispatcher
2017-08-15 20:40:00,272 DEBUG [DiscoverySSDPMessageListener] Socket closed: Socket closed
2017-08-15 20:40:00,272 INFO [DiscoverySSDPMessageListener] Leaving DiscoverySSDPMessageListener
2017-08-15 20:40:00,273 INFO [EventSubscriptionExpirationChecker] Leaving EventSubscriptionExpirationChecker, removing all event s$
2017-08-15 20:40:00,274 DEBUG [EventSubscriptionExpirationChecker] Removed subscription 9495e82b-d7bf-4cfd-aca4-8f5fe035cd47 from s$
2017-08-15 20:40:00,274 DEBUG [EventSubscriptionExpirationChecker] Removed subscription 543452e5-b47a-4c86-84a2-d99ea8a51855 from s$
2017-08-15 20:40:00,274 DEBUG [EventSubscriptionExpirationChecker] Removed subscription 0b1dd7a8-0f46-4fb6-859d-5b878d195780 from s$
2017-08-15 20:40:00,275 DEBUG [DiscoveryAdvertisementNotifier] Multicasting SSDP byebye using interface enp2s0 (enp2s0) and address$
2017-08-15 20:40:00,278 INFO [DatabaseManager] Shutting down database
2017-08-15 20:40:00,279 DEBUG [DBConnectionPool] Closed connection for pool Serviio DB Pool2017-08-15 20:40:00,275 DEBUG [DiscoveryAdvertisementNotifier] Multicasting SSDP byebye using interface enp2s0 (enp2s0) and address$
2017-08-15 20:40:00,278 INFO [DatabaseManager] Shutting down database
2017-08-15 20:40:00,279 DEBUG [DBConnectionPool] Closed connection for pool Serviio DB Pool
2017-08-15 20:40:00,280 DEBUG [DBConnectionPool] Closed connection for pool Serviio DB Pool
2017-08-15 20:40:00,280 DEBUG [DBConnectionPool] Closed connection for pool Serviio DB Pool
2017-08-15 20:40:00,664 INFO [RendererExpirationChecker] Leaving RendererExpirationChecker
2017-08-15 20:40:00,715 WARN [DatabaseManager] DB shutdown returned: Derby system shutdown.
2017-08-15 20:40:00,715 INFO [AbstractAVTranscodingDeliveryEngine] Cleaning transcode engine and its data
2017-08-15 20:40:00,715 DEBUG [AbstractAVTranscodingDeliveryEngine] Deleting temporary transcoded files from: /tmp/Serviio
There are only 10 types of people in the world: Those who understand binary and those who don`t ....

Return to Serviio Support & Help

Who is online

Users browsing this forum: Bing [Bot] and 7 guests

Powered by phpBB © 2000, 2002, 2005, 2007 phpBB Group.
Designed by ST Software for PTF.