FAQ  •  Register  •  Login

Canot share any media

<<

sekaijin

Serviio newbie

Posts: 7

Joined: Sat Jun 02, 2018 4:47 pm

Post Sat Jun 02, 2018 4:57 pm

Canot share any media

I've installe serviio on MacBook El Capitan

on console app I've added /livebox folder with one video
I've open the http://localhost:23423/console/#/app/welcome url and i can see 1 video in welcome page.
my computer appears in the list of media servers on my tv.
but the video media is empty.

I've open http://localhost:23424/mediabrowser/#/b ... Home&bid=0 url but does not contain video
i've reopen in another tab http://localhost:23423/console/#/app/welcome url and i can see 1 video in welcome page.

where is my video ?
I tried with audi or picture I get the same symptom.

Thank
<<

atc98092

User avatar

DLNA master

Posts: 2623

Joined: Fri Aug 17, 2012 10:22 pm

Location: Washington (the state)

Post Sat Jun 02, 2018 5:43 pm

Re: Canot share any media

Is the video on a drive actually connected to the MacBook, or a network share? If the shared location is on a network, you likely have a permissions issue.

But since the console is showing a single video, that means it is reading your shared location. Can you provide the media information of that file? It's possible that it isn't being recognized as a playable video, hence not appearing in any device. If MediaBrowser doesn't show it, then it's not being recognized.

Besides MediaBrowser, what other players are you using, and what profile has Serviio assigned to them?
Dan

Panasonic ST30 Plasma, Samsung JU7100 4K TV, Sony BDP-S3500, Sharp 4K Roku TV, Insignia Roku TV, Roku 4, Ultra and Stick, Yamaha RX-V583 AVR.
Primary server: Intel i5-6400, 8 gig ram, Windows 10 Pro, 18 TB hard drive space | Test server Windows 7 Home Premium, AMD Phenom II X4 965, 8 gig ram

Enable debug logging Identify media file contents
<<

sekaijin

Serviio newbie

Posts: 7

Joined: Sat Jun 02, 2018 4:47 pm

Post Sat Jun 02, 2018 5:51 pm

Re: Canot share any media

no is a folder on local disk

drwxr-xr-x 3 jeanyves wheel 102 2 jui 18:35 /livebox/
-rw-r--r--@ 1 jeanyves staff 171545640 9 fév 21:40 myvideo.mp4

I tried mp3, mp4, avi, jpg, png, tiff
thank
A+
<<

atc98092

User avatar

DLNA master

Posts: 2623

Joined: Fri Aug 17, 2012 10:22 pm

Location: Washington (the state)

Post Sun Jun 03, 2018 1:01 am

Re: Canot share any media

Please see the link in my signature for instructions on gathering the media info for your files. And remember that .MP4, .MPG, etc. are just containers, and they don't describe what video and audio codecs are inside them.
Dan

Panasonic ST30 Plasma, Samsung JU7100 4K TV, Sony BDP-S3500, Sharp 4K Roku TV, Insignia Roku TV, Roku 4, Ultra and Stick, Yamaha RX-V583 AVR.
Primary server: Intel i5-6400, 8 gig ram, Windows 10 Pro, 18 TB hard drive space | Test server Windows 7 Home Premium, AMD Phenom II X4 965, 8 gig ram

Enable debug logging Identify media file contents
<<

sekaijin

Serviio newbie

Posts: 7

Joined: Sat Jun 02, 2018 4:47 pm

Post Sun Jun 03, 2018 8:21 am

Re: Canot share any media

Ok i've used https://mediaarea.net/MediaInfoOnline
  Code:
Format                                   : MPEG-4
Format profile                           : Base Media
Codec ID                                 : isom (isom/iso2/avc1/mp41)
File size                                : 164 MiB
Duration                                 : 5 min 30 s
Overall bit rate                         : 4 150 kb/s
Writing application                      : Lavf56.25.101

Video
ID                                       : 1
Format                                   : AVC
Format/Info                              : Advanced Video Codec
Format profile                           : High@L4
Format settings                          : CABAC / 3 Ref Frames
Format settings, CABAC                   : Yes
Format settings, ReFrames                : 3 frames
Codec ID                                 : avc1
Codec ID/Info                            : Advanced Video Coding


But the doc does not provide more info than mp4
http://serviio.org/features :
  Code:
Video: MPEG-1 (.mpg, .mpeg), MPEG-2 PS (.mpg, .mpeg, vob, mod), MPEG-2 TS (.ts, .m2ts), MPEG-4 (.mp4, m4v, mov), AVI (.avi, .divx), Windows Media Video (.wmv, .asf), Matroska (.mkv), Flash (.flv, .f4v), DVR-MS (.dvr, .dvr-ms), WTV (.wtv), OGG (.ogv, .ogm), 3GP (.3gp, .3g2), RealVideo (.rm, .rmvb)


I think it would be nice to put here or in a linked page the list of supported codecs.
Now that I have the codec, where can I find the info of the codecs supported by serviio?

I moved the media directly to the disc of my TV and he reads it without problem. so it's not on the TV side that have to look.

Serviio log:
  Code:
2018-06-03 15:47:55,896 INFO  [LibraryDeltaScanner] Removed repository '/livebox' from delta scanner (POLLER)
2018-06-03 15:47:55,944 INFO  [LocalLibraryManager] Starting automatic library scan
2018-06-03 15:47:55,947 INFO  [LibraryDeltaScanner] Added repository '/livebox' to delta scanner (POLLER)
2018-06-03 15:47:55,948 INFO  [LibraryDeltaScanner] Starting the library delta scan
2018-06-03 15:47:55,952 INFO  [PlaylistMaintainerWorker] Started looking for playlist changes
2018-06-03 15:47:58,463 INFO  [MediaFileIndexer] Added file '/livebox/Океан Ельзи - Без меж (2016)/01. Віддай мені (Свою любов).mp3' (title: Віддай мені (Свою любов)) to Library
2018-06-03 15:47:58,681 INFO  [MediaFileIndexer] Added file '/livebox/Океан Ельзи - Без меж (2016)/02. Не йди.mp3' (title: Не йди) to Library
2018-06-03 15:47:58,909 INFO  [MediaFileIndexer] Added file '/livebox/Океан Ельзи - Без меж (2016)/03. Джерело.mp3' (title: Джерело) to Library
2018-06-03 15:47:59,051 INFO  [MediaFileIndexer] Added file '/livebox/Океан Ельзи - Без меж (2016)/04. Сонце.mp3' (title: Сонце) to Library
2018-06-03 15:47:59,159 INFO  [MediaFileIndexer] Added file '/livebox/Океан Ельзи - Без меж (2016)/05. Мить.mp3' (title: Мить) to Library
2018-06-03 15:47:59,331 INFO  [MediaFileIndexer] Added file '/livebox/Океан Ельзи - Без меж (2016)/06. Не твоя війна.mp3' (title: Не твоя війна) to Library
2018-06-03 15:47:59,435 INFO  [MediaFileIndexer] Added file '/livebox/Океан Ельзи - Без меж (2016)/07. Еверест.mp3' (title: Еверест) to Library
2018-06-03 15:47:59,541 INFO  [MediaFileIndexer] Added file '/livebox/Океан Ельзи - Без меж (2016)/08. Хтось в небо летить.mp3' (title: Хтось в небо летить) to Library
2018-06-03 15:47:59,698 INFO  [MediaFileIndexer] Added file '/livebox/Океан Ельзи - Без меж (2016)/09. Життя починається знов.mp3' (title: Життя починається знов) to Library
2018-06-03 15:47:59,772 INFO  [MediaFileIndexer] Added file '/livebox/Океан Ельзи - Без меж (2016)/10. Осінь.mp3' (title: Осінь) to Library
2018-06-03 15:47:59,862 INFO  [MediaFileIndexer] Added file '/livebox/Океан Ельзи - Без меж (2016)/11. Без меж.mp3' (title: Без меж) to Library
2018-06-03 15:47:59,960 INFO  [MediaFileIndexer] Added file '/livebox/Океан Ельзи - Без меж (2016)/cover.jpg' (title: cover) to Library
2018-06-03 15:48:02,337 WARN  [OnlineVideoSourcesMetadataExtractor] Online metadata search returned no results for file Пелагея - Пташечка HD (От Руси до России 2015) (Испр.).mp4 [VideoDescription [type=FILM, names=[пелагея пташечка, null], year=2015, season=null, episode=null, imdb_id=null]] using TheMovieDBSourceAdaptor
 

Thank
A+JYT
PS this simple file is not visible but appair on startup console page
  Code:
General
Complete name                            : cover.jpg
Format                                   : JPEG
File size                                : 63.7 KiB

Image
Format                                   : JPEG
Width                                    : 512 pixels
Height                                   : 512 pixels
Color space                              : YUV
Chroma subsampling                       : 4:4:4
Bit depth                                : 8 bits
Compression mode                         : Lossy
Stream size                              : 63.7 KiB (100%)
<<

atc98092

User avatar

DLNA master

Posts: 2623

Joined: Fri Aug 17, 2012 10:22 pm

Location: Washington (the state)

Post Sun Jun 03, 2018 9:36 pm

Re: Canot share any media

I'll have to let Zip weigh in on the codec. This shows H.264 High Level 4 video, which shouldn't be an issue. But I'm unfamiliar with the Format Settings, and there could be something there.

Also, that report doesn't show the audio information for some reason. Did you not copy the entire listing, or was that it? If there was some strange audio codec, that might explain the issue as well.
Dan

Panasonic ST30 Plasma, Samsung JU7100 4K TV, Sony BDP-S3500, Sharp 4K Roku TV, Insignia Roku TV, Roku 4, Ultra and Stick, Yamaha RX-V583 AVR.
Primary server: Intel i5-6400, 8 gig ram, Windows 10 Pro, 18 TB hard drive space | Test server Windows 7 Home Premium, AMD Phenom II X4 965, 8 gig ram

Enable debug logging Identify media file contents
<<

sekaijin

Serviio newbie

Posts: 7

Joined: Sat Jun 02, 2018 4:47 pm

Post Mon Jun 04, 2018 8:47 am

Re: Canot share any media

No media is visible. not even cover.jpg
yet he is well loaded by serviio
  Code:
2018-06-03 15:47:55,896 INFO  [LibraryDeltaScanner] Removed repository '/livebox' from delta scanner (POLLER)
2018-06-03 15:47:55,944 INFO  [LocalLibraryManager] Starting automatic library scan
2018-06-03 15:47:55,947 INFO  [LibraryDeltaScanner] Added repository '/livebox' to delta scanner (POLLER)
2018-06-03 15:47:55,948 INFO  [LibraryDeltaScanner] Starting the library delta scan
2018-06-03 15:47:55,952 INFO  [PlaylistMaintainerWorker] Started looking for playlist changes
2018-06-03 15:47:58,463 INFO  [MediaFileIndexer] Added file '/livebox/Океан Ельзи - Без меж (2016)/01. Віддай мені (Свою любов).mp3' (title: Віддай мені (Свою любов)) to Library
...
...
2018-06-03 15:47:59,960 INFO  [MediaFileIndexer] Added file '/livebox/Океан Ельзи - Без меж (2016)/cover.jpg' (title: cover) to Library
....

it is a simple jpg file
  Code:
General
Complete name                            : cover.jpg
Format                                   : JPEG
File size                                : 63.7 KiB

Image
Format                                   : JPEG
Width                                    : 512 pixels
Height                                   : 512 pixels
Color space                              : YUV
Chroma subsampling                       : 4:4:4
Bit depth                                : 8 bits
Compression mode                         : Lossy
Stream size                              : 63.7 KiB (100%)


For this file, it is not possible that this is a codec problem.

the folder is located at root of disk /livebox with 777 rights
all the files in the folder have the rights 777

thank
<<

atc98092

User avatar

DLNA master

Posts: 2623

Joined: Fri Aug 17, 2012 10:22 pm

Location: Washington (the state)

Post Mon Jun 04, 2018 12:34 pm

Re: Canot share any media

I wasn't referring to the JPG image, I was talking about the MPEG-4 file. The media information is incomplete.
Dan

Panasonic ST30 Plasma, Samsung JU7100 4K TV, Sony BDP-S3500, Sharp 4K Roku TV, Insignia Roku TV, Roku 4, Ultra and Stick, Yamaha RX-V583 AVR.
Primary server: Intel i5-6400, 8 gig ram, Windows 10 Pro, 18 TB hard drive space | Test server Windows 7 Home Premium, AMD Phenom II X4 965, 8 gig ram

Enable debug logging Identify media file contents
<<

sekaijin

Serviio newbie

Posts: 7

Joined: Sat Jun 02, 2018 4:47 pm

Post Mon Jun 04, 2018 12:51 pm

Re: Canot share any media

Yes, I understood that you were talking about the mp4 file.
but the problem is global.
I do not think it is linked to a codec while any file among the hundreds that I tried is not visible.
  Code:
General
Complete name                            : Пелагея - Пташечка HD (От Руси до России 2015) (Испр.).mp4
Format                                   : MPEG-4
Format profile                           : Base Media
Codec ID                                 : isom (isom/iso2/avc1/mp41)
File size                                : 164 MiB
Duration                                 : 5 min 30 s
Overall bit rate                         : 4 150 kb/s
Writing application                      : Lavf56.25.101

Video
ID                                       : 1
Format                                   : AVC
Format/Info                              : Advanced Video Codec
Format profile                           : High@L4
Format settings                          : CABAC / 3 Ref Frames
Format settings, CABAC                   : Yes
Format settings, ReFrames                : 3 frames
Codec ID                                 : avc1
Codec ID/Info                            : Advanced Video Coding
Duration                                 : 5 min 30 s
Bit rate                                 : 4 020 kb/s
Width                                    : 1 920 pixels
Height                                   : 1 080 pixels
Display aspect ratio                     : 16:9
Frame rate mode                          : Variable
Frame rate                               : 24.975 (25000/1001) FPS
Minimum frame rate                       : 24.972 FPS
Maximum frame rate                       : 24.986 FPS
Color space                              : YUV
Chroma subsampling                       : 4:2:0
Bit depth                                : 8 bits
Scan type                                : Progressive
Bits/(Pixel*Frame)                       : 0.078
Stream size                              : 158 MiB (97%)

Audio
ID                                       : 2
Format                                   : AAC
Format/Info                              : Advanced Audio Codec
Format profile                           : LC
Codec ID                                 : mp4a-40-2
Duration                                 : 5 min 30 s
Bit rate mode                            : Constant
Bit rate                                 : 126 kb/s
Channel(s)                               : 2 channels
Channel positions                        : Front: L R
Sampling rate                            : 44.1 kHz
Frame rate                               : 43.066 FPS (1024 SPF)
Compression mode                         : Lossy
Stream size                              : 4.95 MiB (3%)
Default                                  : Yes
Alternate group                          : 1
<<

mjb

User avatar

Streaming enthusiast

Posts: 40

Joined: Fri Jan 06, 2012 10:42 pm

Post Tue Jun 05, 2018 3:04 pm

Re: Canot share any media

Since the video shows in the local browser, it is getting added to the library, so the codec is OK (i.e. it is one Serviio is willing to send to the TV natively or transcode).

When sending the list of files in a folder, Serviio tells the TV what each file format will be. If Serviio is going to transcode a file, it says the format will be the transcoded format. If the TV does not recognize the declared format, it may not show the file at all. Maybe this is what is happening—i.e., Serviio plans to transcode the file to a format this TV does not like, or which it only knows by a slightly different name.

What kind of TV is it, and what profile is showing for it in Serviio Console? This may tell us something. Or not. :)

Probably the next step will be to get a debug log so we can see some info about the conversation between Serviio and the TV.
<<

atc98092

User avatar

DLNA master

Posts: 2623

Joined: Fri Aug 17, 2012 10:22 pm

Location: Washington (the state)

Post Tue Jun 05, 2018 3:13 pm

Re: Canot share any media

I believe he's stating that the video is not visible in MediaBrowser, but the console does show a media count on the home page. If it's not visible in MediaBrowser, there's an issue with the video codecs, and Zip needs to weigh in about that.
Dan

Panasonic ST30 Plasma, Samsung JU7100 4K TV, Sony BDP-S3500, Sharp 4K Roku TV, Insignia Roku TV, Roku 4, Ultra and Stick, Yamaha RX-V583 AVR.
Primary server: Intel i5-6400, 8 gig ram, Windows 10 Pro, 18 TB hard drive space | Test server Windows 7 Home Premium, AMD Phenom II X4 965, 8 gig ram

Enable debug logging Identify media file contents
<<

sekaijin

Serviio newbie

Posts: 7

Joined: Sat Jun 02, 2018 4:47 pm

Post Tue Jun 05, 2018 4:36 pm

Re: Canot share any media

Yes the video is not visible in MediaBrowser, but the console does show a media count on the home page.
A+JYT
<<

mjb

User avatar

Streaming enthusiast

Posts: 40

Joined: Fri Jan 06, 2012 10:42 pm

Post Tue Jun 05, 2018 8:57 pm

Re: Canot share any media

I misunderstood the original post. Sorry about that.

Assuming it is just a stream rip from YouTube, I tried the same file on my system. MediaInfo details are the same. It was added to the library and streams natively to my Blu-Ray player, no problem. Serviio Pro has expired so I can't test MediaBrowser.

Just to be clear, in case this is the problem ... when browsing, it is normal to first choose the type of media to see: video or audio or image. You will only see what you chose. So if you choose audio, you will only see audio files ... you have to choose video if you want to see the video files.

Return to Serviio Support & Help

Who is online

Users browsing this forum: No registered users and 10 guests

Powered by phpBB © 2000, 2002, 2005, 2007 phpBB Group.
Designed by ST Software for PTF.