FAQ  •  Register  •  Login

List of test media files

<<

zip

User avatar

Serviio developer / Site Admin

Posts: 16499

Joined: Sat Oct 24, 2009 12:24 pm

Location: London, UK

Post Wed Sep 01, 2010 11:52 am

List of test media files

In order to test profiles, transcoding and playback of files for your device, try some of these files:

FFmpeg samples repository:

http://samples.ffmpeg.org/ (link failed)--> http://samples.mplayerhq.hu/

VLC samples

http://streams.videolan.org/streams/

Other resources:

http://www.nextcomwireless.com/R5000/samples.htm
http://www.divx.com/en/electronics/solu ... s-hd/video
http://a1408.g.akamai.net/5/1408/1388/2 ... es.mov.zip
<<

Illico

User avatar

DLNA master

Posts: 4649

Joined: Fri Jul 23, 2010 8:08 am

Location: France

Post Fri Dec 10, 2010 10:12 am

Re: List of test media files

<<

yule

Serviio newbie

Posts: 6

Joined: Fri Dec 31, 2010 9:08 am

Post Fri Dec 31, 2010 9:56 am

Re: List of test media files

The Blender foundation movies Sintel and Big Buck Bunny are available in varying resolutions and formats. I quite like them for testing capabilities.
http://www.sintel.org/wp-content/content/download.html
http://www.bigbuckbunny.org/index.php/download/
<<

Illico

User avatar

DLNA master

Posts: 4649

Joined: Fri Jul 23, 2010 8:08 am

Location: France

Post Fri Feb 11, 2011 8:23 am

Re: List of test media files

VOB with closed caption:
http://samples.ffmpeg.org/MPEG-VOB/Clos ... oopers.vob

This (Starship_Troopers.vob) is a piece of VOB file from a Region 1 DVD containing Closed Captions.
It contains English soundtracks (aid 129 is AC3-5.1), and a commentary, plus subtitles in DVD format (sid 0 is English).
<<

Illico

User avatar

DLNA master

Posts: 4649

Joined: Fri Jul 23, 2010 8:08 am

Location: France

Post Mon Feb 14, 2011 8:45 am

Re: List of test media files

A transport stream which nicely displays pre-rendered subtitles on Viera (via Serviio):
http://streams.videolan.org/streams-vid ... +dvbsub.ts

MediaInfo
  Code:
General
ID                               : 0 (0x0)
Complete name                    : H:\Serviio\video_subs_ttxt+dvbsub.ts
Format                           : MPEG-TS
File size                        : 102 MiB
Duration                         : 2mn 21s
Start time                       : UTC 2006-11-08 14:15:14
End time                         : UTC 2006-11-08 14:17:24
Overall bit rate                 : 6 019 Kbps
Network name                     : ASTRA
Original network name            : Astra Satellite Network 28,2'E

Video
ID                               : 5000 (0x1388)
Menu ID                          : 6301 (0x189D)
Format                           : MPEG Video
Format version                   : Version 2
Format profile                   : Main@Main
Format settings, BVOP            : Yes
Format settings, Matrix          : Default
Format settings, GOP             : M=3, N=12
Codec ID                         : 2
Duration                         : 2mn 20s
Bit rate mode                    : Constant
Bit rate                         : 5 204 Kbps
Nominal bit rate                 : 7 980 Kbps
Maximum bit rate                 : 31.7 Mbps
Width                            : 720 pixels
Height                           : 576 pixels
Display aspect ratio             : 16:9
Frame rate                       : 25.000 fps
Standard                         : PAL
Color space                      : YUV
Chroma subsampling               : 4:2:0
Bit depth                        : 8 bits
Scan type                        : Interlaced
Scan order                       : Top Field First
Compression mode                 : Lossy
Bits/(Pixel*Frame)               : 0.502
Stream size                      : 87.3 MiB (86%)

Audio #1
ID                               : 5001 (0x1389)
Menu ID                          : 6301 (0x189D)
Format                           : MPEG Audio
Format version                   : Version 1
Format profile                   : Layer 2
Codec ID                         : 3
Duration                         : 2mn 21s
Bit rate mode                    : Constant
Bit rate                         : 256 Kbps
Maximum bit rate                 : 31.7 Mbps
Channel(s)                       : 2 channels
Sampling rate                    : 48.0 KHz
Compression mode                 : Lossy
Delay relative to video          : -139ms
Stream size                      : 4.31 MiB (4%)
Language                         : English

Audio #2
ID                               : 5002 (0x138A)
Menu ID                          : 6301 (0x189D)
Format                           : MPEG Audio
Format version                   : Version 1
Format profile                   : Layer 2
Codec ID                         : 3
Duration                         : 2mn 21s
Bit rate mode                    : Constant
Bit rate                         : 256 Kbps
Maximum bit rate                 : 31.7 Mbps
Channel(s)                       : 2 channels
Sampling rate                    : 48.0 KHz
Compression mode                 : Lossy
Delay relative to video          : -85ms
Stream size                      : 4.31 MiB (4%)
Language                         : nar

Text #1
ID                               : 5003 (0x138B)-100
Menu ID                          : 6301 (0x189D)
Format                           : Teletext
Language                         : English

Text #2
ID                               : 5003 (0x138B)-888
Menu ID                          : 6301 (0x189D)
Format                           : Teletext Subtitle
Language                         : English

Text #3
ID                               : 5004 (0x138C)
Menu ID                          : 6301 (0x189D)
Format                           : DVB Subtitle
Codec ID                         : 6
Maximum bit rate                 : 31.7 Mbps
Language                         : English

Menu
ID                               : 261 (0x105)
Menu ID                          : 6301 (0x189D)
Duration                         : 2mn 21s
List                             : 2306 (0x902) () / 2308 (0x904) () / 2311 (0x907) () / 5000 (0x1388) (MPEG Video) / 5001 (0x1389) (MPEG Audio, English) / 5002 (0x138A) (MPEG Audio, nar) / 5003 (0x138B) () / 5004 (0x138C) (DVB Subtitle, English)
Language                         :  /  /  /  / English / nar /  / English
Maximum bit rate                 : 411805200
UTC 2006-11-08 14:35:00          : en:†Murder, She Wrote‡ / en:The Monte Carlo Murders: Jessica is looking forward to a rest in a Monte Carlo hotel owned by a friend. But her sojourn is interrupted when a businessman is found murdered in one of the suites. [S] /  /  / 00:45:00 / Not running


ffmpeg
  Code:
C:\Serviio\lib>ffmpeg.exe -i "H:\Serviio\video_subs_ttxt+dvbsub.ts"
FFmpeg version UNKNOWN, Copyright (c) 2000-2011 the FFmpeg developers
  built on Jan 10 2011 21:46:22 with gcc 4.4.2
  configuration: --enable-static --disable-shared --disable-shared --disable-ffplay --disable-ffserver --enable-memalign-hack --enable-libmp3lame --arch=x86 --enable-runtime-cpudetect --enable-w32threads --target-os=mingw32 --cross-prefix=i686-mingw32-
  libavutil     50.36. 0 / 50.36. 0
  libavcore      0.16. 0 /  0.16. 0
  libavcodec    52.108. 0 / 52.108. 0
  libavformat   52.92. 0 / 52.92. 0
  libavdevice   52. 2. 3 / 52. 2. 3
  libavfilter    1.72. 0 /  1.72. 0
  libswscale     0.12. 0 /  0.12. 0
[mpeg2video @ 016fba20] mpeg_decode_postinit() failure
    Last message repeated 3 times
[mpegts @ 015fd910] max_analyze_duration reached
[NULL @ 016e7570] start time is not set in av_estimate_timings_from_pts
[NULL @ 016fd6f0] start time is not set in av_estimate_timings_from_pts
[NULL @ 016ff3b0] start time is not set in av_estimate_timings_from_pts
[NULL @ 017010a0] start time is not set in av_estimate_timings_from_pts
[NULL @ 01702f10] start time is not set in av_estimate_timings_from_pts
[NULL @ 01704db0] start time is not set in av_estimate_timings_from_pts
[NULL @ 01706c20] start time is not set in av_estimate_timings_from_pts
[NULL @ 01708a90] start time is not set in av_estimate_timings_from_pts
Input #0, mpegts, from 'H:\Serviio\video_subs_ttxt+dvbsub.ts':
  Duration: 00:02:21.72, start: 458.712200, bitrate: 6010 kb/s
  Program 6301 BBC 1 London
    Metadata:
      name            : BBC 1 London
      provider_name   : BSkyB
    Stream #0.0[0x1388]: Video: mpeg2video, yuv420p, 720x576 [PAR 64:45 DAR 16:9], 7980 kb/s, 25.40 fps, 25 tbr, 90k tbn, 50 tbc
    Stream #0.1[0x1389](eng): Audio: mp2, 48000 Hz, 2 channels, s16, 256 kb/s
    Stream #0.2[0x138a](NAR): Audio: mp2, 48000 Hz, 2 channels, s16, 256 kb/s
    Stream #0.3[0x138b](eng): Subtitle: [6][0][0][0] / 0x0006
    Stream #0.4[0x902]: Data: [5][0][0][0] / 0x0005
    Stream #0.5[0x903]: Data: [5][0][0][0] / 0x0005
    Stream #0.6[0x904]: Data: [5][0][0][0] / 0x0005
    Stream #0.7[0x905]: Data: [5][0][0][0] / 0x0005
    Stream #0.8[0x907]: Data: [5][0][0][0] / 0x0005
    Stream #0.9[0x908]: Data: [5][0][0][0] / 0x0005
    Stream #0.10[0x909]: Data: [5][0][0][0] / 0x0005
    Stream #0.11[0x90a]: Data: [5][0][0][0] / 0x0005
    Stream #0.12[0x138c](eng): Subtitle: dvbsub
  Program 6318 CBeebies
    Metadata:
      name            : CBeebies
      provider_name   : BSkyB
  Program 6319 BBC THREE
    Metadata:
      name            : BBC THREE
      provider_name   : BSkyB
  Program 6331 BBC 1 NI
    Metadata:
      name            : BBC 1 NI
      provider_name   : BSkyB
  Program 6363 BBC R Cymru
    Metadata:
      name            : BBC R Cymru
      provider_name   : BSkyB
  Program 6302 BBC 2 England
    Metadata:
      name            : BBC 2 England
      provider_name   : BSkyB
  Program 6304 BBC NEWS 24
    Metadata:
      name            : BBC NEWS 24
      provider_name   : BSkyB
  Program 6306 ETV
    Metadata:
      name            : ETV
      provider_name   : BSkyB
  Program 6308 BBC TES Test
    Metadata:
      name            : BBC TES Test
      provider_name   : BSkyB
  Program 6309 BBC TES 2
    Metadata:
      name            : BBC TES 2
      provider_name   : BSkyB
  Program 6315 BBC TES 3
    Metadata:
      name            : BBC TES 3
      provider_name   : BSkyB
  Program 6316 BBC FOUR
    Metadata:
      name            : BBC FOUR
      provider_name   : BSkyB
  Program 6317 CBBC Channel
    Metadata:
      name            : CBBC Channel
      provider_name   : BSkyB
<<

Illico

User avatar

DLNA master

Posts: 4649

Joined: Fri Jul 23, 2010 8:08 am

Location: France

Post Wed Aug 03, 2011 3:24 pm

Re: List of test media files

The http://samples.ffmpeg.org seems to be done...

Use
http://samples.mplayerhq.hu/

This is the MPlayer/FFmpeg samples collection.
You can find samples of various common and uncommon
multimedia formats here. The size of the collection
currently is 53GB and growing.

You are free to download any samples you want, but
if you want to download more than just a few or want
to mirror the whole collection please send a mail to
webmaster(AT)mplayerhq(DOT)hu *before* you start
and ask for permission.

We can also ship the samples collection to you for a
reasonable fee, inquire for details.

The best way to download samples is with rsync. If you decide
to fetch a large amount (more than 1GB), please limit the rate
to no more than 50 kBps (use the --bwlimit option of rsync).

Please be aware that this samples collection contains a lot
of files that are very obscure, broken in various ways or
are just simply out of use. Hence, it doesn't make sense
to download all of them, unless you are developing a player
application that will support all and every file format
that was ever conceived.
<<

sunnyday

Streaming enthusiast

Posts: 36

Joined: Thu Feb 17, 2011 2:17 pm

Location: Stockholm, Sweden

Post Mon Jan 16, 2012 7:25 am

Re: List of test media files

A set of 8 different sample files from the creators of the Matroska specifiation:
http://matroska.org/downloads/test_w1.html (176 MB zip archive)

Quote from included documentation:
"The files presented here represent the minimum support a player should have to fully qualify as a Matroska player."
Samsung UE46D5005XXE | Samsung BD-C6500
<<

jlcooke

Streaming enthusiast

Posts: 22

Joined: Wed May 30, 2012 7:46 pm

Post Thu May 31, 2012 1:52 pm

Re: List of test media files

<<

Illico

User avatar

DLNA master

Posts: 4649

Joined: Fri Jul 23, 2010 8:08 am

Location: France

Post Mon Jun 24, 2013 3:14 pm

Re: List of test media files

Some samples : http://www.divx.com/en/devices/profiles/video


-- MKV --

Mike Wiegele Heliboarding
Video Wiegeles
DivX Plus HD
1920x1080
Length: 00:03:40
Advanced Features: Smooth FF/RW, authored chapters
Download

Sintel
DivX Plus HD (MKV)
1920x1080
Length: 00:15:08
Advanced Features: multiple subtitles and tracks, smooth FF/RW, authored chapters
Download




-- DIVX (HD) --


Micayala Gatto
DivX HD 1080p
1920x1080
Length: 00:02:17
Download


Helicopter Flight
DivX Home Theater
720x576
Length: 00:01:48
Download


Elephants Dream
DivX HD
1920x1080
Length: 00:11:14
Features: multiple subtitles and audio tracks, chapter points
Download


Big Buck Bunny
DivX HD
1280x720
Length: 00:10:17
Features: multiple audio tracks, chapter points
Download


Amos TV
DivX Home Theater
720x576
Length: 00:10:02
Features: chapter points
Download
<<

Illico

User avatar

DLNA master

Posts: 4649

Joined: Fri Jul 23, 2010 8:08 am

Location: France

Post Tue Aug 20, 2013 12:04 pm

Re: List of test media files

<<

Illico

User avatar

DLNA master

Posts: 4649

Joined: Fri Jul 23, 2010 8:08 am

Location: France

Post Tue Aug 20, 2013 12:15 pm

Re: List of test media files

http://download.wavetlan.com/SVV/Media/ ... -index.htm

Audio format:
3GP
AAC
AMR
ASF
FLAC
MIDI
MP3
OGG
QCELP
WAV
WMA

Video format :
3GP
ASF
AVI
MOV
MP4
WMV
MKV
<<

paniko

User avatar

Streaming enthusiast

Posts: 38

Joined: Fri Sep 07, 2012 7:29 am

Post Tue Sep 17, 2013 8:50 am

Re: List of test media files

is it possible to add these link like online resources on serviio?
Paniko
Sumsung EU46D6500 | XBox 360 | Samsung Galaxy S 6 Edge | Windows 10 - i7 64bit | Serviio 1.5.2 Pro
Beta Tester
<<

Illico

User avatar

DLNA master

Posts: 4649

Joined: Fri Jul 23, 2010 8:08 am

Location: France

Post Tue Sep 17, 2013 12:24 pm

Re: List of test media files

paniko wrote:is it possible to add these link like online resources on serviio?

Ye, I already think about this...probably with a groovy plugin. But need time to test it.
<<

ViverraXX

Serviio newbie

Posts: 5

Joined: Thu Nov 28, 2013 10:01 pm

Post Fri Nov 29, 2013 8:25 am

Re: List of test media files

zip wrote:In order to test profiles, transcoding and playback of files for your device, try some of these files:
Do you can to do multiple deletion in the resources list? I have do Import playlist with 350 channels, but it has some mistake, and I was forced to delete each in turn - not comfortable.
<<

wiak

Serviio newbie

Posts: 3

Joined: Fri Apr 03, 2015 5:11 am

Post Fri Apr 03, 2015 5:14 am

Re: List of test media files

Big Buck bunny (CC License) 4k@60fps with 3d videos can be found here
http://bbb3d.renderfarming.net/download.html
<<

Torence

Serviio newbie

Posts: 10

Joined: Mon Sep 11, 2017 4:48 am

Post Mon Sep 11, 2017 5:48 am

Re: List of test media files

Thanks for you sharing. I will add these files to my list to try.

Return to Serviio Support & Help

Who is online

Users browsing this forum: No registered users and 11 guests

Powered by phpBB © 2000, 2002, 2005, 2007 phpBB Group.
Designed by ST Software for PTF.