FAQ  •  Register  •  Login

Xbox 360

<<

CyberSquire

Serviio newbie

Posts: 5

Joined: Fri Sep 21, 2012 1:31 am

Post Fri Sep 21, 2012 1:36 am

Xbox 360

Ok, so I have an Xbox 360 and a PS3. I have a few 1080P MP4 files that I am trying to play on the Xbox 360. When trying to play them I get the error 69-C00D36B4 and that it is an unsupported type. I was under the impression that Serviio would transcode it if necessary? :mrgreen:
<<

zip

User avatar

Serviio developer / Site Admin

Posts: 14292

Joined: Sat Oct 24, 2009 12:24 pm

Location: London, UK

Post Fri Sep 21, 2012 12:35 pm

Re: Xbox 360

post ffmpeg -i of the file
<<

CyberSquire

Serviio newbie

Posts: 5

Joined: Fri Sep 21, 2012 1:31 am

Post Sat Sep 22, 2012 10:14 pm

Re: Xbox 360

Ok, stupid question. Where would I find the ffmpeg executable? I looked in the serviio plugin directory and nothing is in there. That might be the problem.
<<

CyberSquire

Serviio newbie

Posts: 5

Joined: Fri Sep 21, 2012 1:31 am

Post Sat Sep 22, 2012 10:33 pm

Re: Xbox 360

Nevermind. I found it. :) Sometimes you just need to look harder. :) I am playing with Serviio on Server 2012 and the interface is totally different and I think it made me slightly retarded for a minute. :P

  Code:
ffmpeg version N-42368-gbf53863 Copyright (c) 2000-2012 the FFmpeg developers
  built on Jul 10 2012 03:40:45 with gcc 4.6.3
  configuration: --enable-static --disable-shared --disable-ffplay --disable-ffs
erver --enable-memalign-hack --enable-libmp3lame --enable-librtmp --extra-libs='
-lrtmp -lpolarssl -lws2_32 -lwinmm' --arch=x86 --enable-runtime-cpudetect --enab
le-pthreads --target-os=mingw32 --cross-prefix=i686-w64-mingw32- --pkg-config=pk
g-config
  libavutil      51. 64.100 / 51. 64.100
  libavcodec     54. 33.100 / 54. 33.100
  libavformat    54. 15.102 / 54. 15.102
  libavdevice    54.  1.100 / 54.  1.100
  libavfilter     3.  1.100 /  3.  1.100
  libswscale      2.  1.100 /  2.  1.100
  libswresample   0. 15.100 /  0. 15.100
Input #0, mov,mp4,m4a,3gp,3g2,mj2, from 'Iron_Man_2008.mp4':
  Metadata:
    major_brand     : isom
    minor_version   : 1
    compatible_brands: isomavc1
  Duration: 02:06:01.79, start: 0.000000, bitrate: 2711 kb/s
    Stream #0:0(und): Video: h264 (High) (avc1 / 0x31637661), yuv420p, 1920x800
[SAR 1:1 DAR 12:5], 2071 kb/s, 23.98 fps, 23.98 tbr, 24k tbn, 47.95 tbc
    Metadata:
      handler_name    : Imported with GPAC 0.4.6-DEV (internal rev. 7)
    Stream #0:1(eng): Audio: aac (mp4a / 0x6134706D), 32000 Hz, 5.1, s16, 636 kb
/s
    Metadata:
      handler_name    : GPAC ISO Audio Handler
At least one output file must be specified
<<

CyberSquire

Serviio newbie

Posts: 5

Joined: Fri Sep 21, 2012 1:31 am

Post Sat Sep 22, 2012 10:39 pm

Re: Xbox 360

I assume that is what you were looking for? :)
<<

zip

User avatar

Serviio developer / Site Admin

Posts: 14292

Joined: Sat Oct 24, 2009 12:24 pm

Location: London, UK

Post Sun Sep 23, 2012 11:42 am

Re: Xbox 360

Yes, it looks like the problem is the 5.1 audio - XBox only supports 2.0 AAC streams. Serviio doesn't currently invoke transcoding based on number of audio channels. I'll open a ticket to implement this.
<<

CyberSquire

Serviio newbie

Posts: 5

Joined: Fri Sep 21, 2012 1:31 am

Post Sat Sep 29, 2012 1:26 am

Re: Xbox 360

Thanks. I appreciate the assistance. I just wish Serviio had the web server interface like Subsonic does, then I would be able to just run Serviio instead of both Serviio and Subsonic. I donated to Subsonic because I use it so much remotely. :) Once I can get Serviio to work for my needs, I will have to see about upgrading to the paid version. :)
<<

Xmantium

User avatar

DLNA master

Posts: 1392

Joined: Sat Jul 23, 2011 2:12 pm

Location: Manchester, UK

Post Sat Sep 29, 2012 9:04 pm

Re: Xbox 360

CyberSquire wrote:I just wish Serviio had the web server interface like Subsonic does, then I would be able to just run Serviio instead of both Serviio and Subsonic. I donated to Subsonic because I use it so much remotely. :) Once I can get Serviio to work for my needs, I will have to see about upgrading to the paid version. :)

Wish granted :D Serviio does have MediaBrowser, its web based so you can watch or listen your content on the move!

If you have an Android device, ServiiGo works well with it.
Sony Bravia 2010 52NX803 - Sony PS3 - Xbox 360
Serviio running on QNAP NAS 639 Pro - 1.6 Intel Dual Core - 2GB RAM and QNAP NAS 121 - 2Ghz ARM Marvell - 1GB RAM
Console using ServiiDroid for Android, ServiiMetro and ServiiWP for Windows Phone and WebUI for iOS
<<

zip

User avatar

Serviio developer / Site Admin

Posts: 14292

Joined: Sat Oct 24, 2009 12:24 pm

Location: London, UK

Post Wed May 01, 2013 1:03 pm

Re: Xbox 360

zip wrote:Yes, it looks like the problem is the 5.1 audio - XBox only supports 2.0 AAC streams. Serviio doesn't currently invoke transcoding based on number of audio channels. I'll open a ticket to implement this.

Thicket created here: https://bitbucket.org/xnejp03/serviio/i ... -number-of
<<

weiyentan

Streaming enthusiast

Posts: 20

Joined: Thu Apr 05, 2012 1:18 pm

Post Sat Feb 08, 2014 5:08 am

Re: Xbox 360

Is this ticket being worked on or is there a workaround like reencoding the file?

Return to Serviio Support & Help

Who is online

Users browsing this forum: Google [Bot] and 8 guests

Powered by phpBB © 2000, 2002, 2005, 2007 phpBB Group.
Designed by ST Software for PTF.