FAQ  •  Register  •  Login

Panasonic VIERA 40CX700 DTS to Ac3.

<<

axander

Serviio newbie

Posts: 2

Joined: Sat Oct 28, 2017 4:35 pm

Post Sat Oct 28, 2017 4:49 pm

Panasonic VIERA 40CX700 DTS to Ac3.

Hello,
I have Panasonic VIERA 40CX700 which does not support DTS Audio.I tried with Viera 2013 profile uncoment this line:
<Matches container="matroska" vCodec="h264" aCodec="dca" /> <!-- Uncomment this line if DTS is not supported natively -->
But still not have audio on DTS movies.With Viera 2009 I have sound but picture is not ok (see atachments)
i want to transcode all movie with DTS AudioCodec to ac3. The video-Codec should not be touched, cause my TV can play every Video-Format.
Attachments
Viera 2009.jpg
Viera 2009
Viera 2009.jpg (116.93 KiB) Viewed 1089 times
original.jpg
Original
original.jpg (112.52 KiB) Viewed 1089 times
<<

DenyAll

DLNA master

Posts: 2175

Joined: Fri Mar 08, 2013 11:16 pm

Location: Adelaide, Australia

Post Sat Oct 28, 2017 10:52 pm

Re: Panasonic VIERA 40CX700 DTS to Ac3.

After changing the Viera 2013 profile did you restart your PC
If that doesn’t work paste MediaInfo details for the file.
DenyAll
Panasonic Viera CS610A | Panasonic Viera V20A | Sony PS4 | Sony PS3 | Panasonic DMP-BD79 | Yamaha RX-V500D | iPad | Windows 10 | Serviio 1.9 Pro
WinHelper | MediaInfo

Beta Tester, Moderator
Please do not PM me for support as any solution cannot be shared with others.
<<

axander

Serviio newbie

Posts: 2

Joined: Sat Oct 28, 2017 4:35 pm

Post Sun Oct 29, 2017 8:57 am

Re: Panasonic VIERA 40CX700 DTS to Ac3.

DenyAll wrote:After changing the Viera 2013 profile did you restart your PC
If that doesn’t work paste MediaInfo details for the file.

Yes i restart my pc.
Format : Matroska
Format version : Version 4 / Version 2
File size : 6.56 GiB
Duration : 2 h 15 min
Overall bit rate : 6 916 kb/s
Encoded date : UTC 2017-08-08 08:03:09
Writing application : mkvmerge v8.3.0 ('Over the Horizon') 64bit
Writing library : libebml v1.3.1 + libmatroska v1.4.2

Video
ID : 1
Format : AVC
Format/Info : Advanced Video Codec
Format profile : High@L4.1
Format settings : CABAC / 5 Ref Frames
Format settings, CABAC : Yes
Format settings, RefFrames : 5 frames
Codec ID : V_MPEG4/ISO/AVC
Duration : 2 h 15 min
Bit rate : 5 405 kb/s
Width : 1 280 pixels
Height : 536 pixels
Display aspect ratio : 2.40:1
Frame rate mode : Constant
Frame rate : 23.976 FPS
Color space : YUV
Chroma subsampling : 4:2:0
Bit depth : 8 bits
Scan type : Progressive
Bits/(Pixel*Frame) : 0.329
Stream size : 5.00 GiB (76%)
Writing library : x264 core 150 r2833 df79067
Encoding settings : cabac=1 / ref=5 / deblock=1:0:0 / analyse=0x3:0x133 / me=umh / subme=7 / psy=1 / psy_rd=1.00:0.00 / mixed_ref=1 / me_range=16 / chroma_me=1 / trellis=1 / 8x8dct=1 / cqm=0 / deadzone=21,11 / fast_pskip=0 / chroma_qp_offset=-2 / threads=17 / lookahead_threads=2 / sliced_threads=0 / nr=0 / decimate=1 / interlaced=0 / bluray_compat=0 / constrained_intra=0 / bframes=3 / b_pyramid=2 / b_adapt=1 / b_bias=0 / direct=1 / weightb=1 / open_gop=0 / weightp=2 / keyint=250 / keyint_min=23 / scenecut=40 / intra_refresh=0 / rc_lookahead=40 / rc=2pass / mbtree=1 / bitrate=5405 / ratetol=1.0 / qcomp=0.60 / qpmin=0 / qpmax=69 / qpstep=4 / cplxblur=20.0 / qblur=0.5 / ip_ratio=1.40 / aq=1:1.00
Language : English
Default : Yes
Forced : No

Audio
ID : 2
Format : DTS
Format/Info : Digital Theater Systems
Mode : 16
Format settings, Endianness : Big
Codec ID : A_DTS
Duration : 2 h 15 min
Bit rate mode : Constant
Bit rate : 1 509 kb/s
Channel(s) : 6 channels
Channel positions : Front: L C R, Side: L R, LFE
Sampling rate : 48.0 kHz
Frame rate : 93.750 FPS (512 SPF)
Bit depth : 24 bits
Compression mode : Lossy
Stream size : 1.43 GiB (22%)
Language : English
Default : Yes
Forced : No
Last edited by axander on Sun Oct 29, 2017 1:43 pm, edited 1 time in total.
<<

DenyAll

DLNA master

Posts: 2175

Joined: Fri Mar 08, 2013 11:16 pm

Location: Adelaide, Australia

Post Sun Oct 29, 2017 11:56 am

Re: Panasonic VIERA 40CX700 DTS to Ac3.

Nothing obvious - it should work once that line Is uncommented. Is this the case with all files containing DTS or just this one?

One thing to check - when Serviio is playing this file it should produce a .stf file in your temporary transcoding folder. Do a MediaInfo on that and check that it is .AC3 audio (you may have to copy it and rename it to a .mpeg file).
DenyAll
Panasonic Viera CS610A | Panasonic Viera V20A | Sony PS4 | Sony PS3 | Panasonic DMP-BD79 | Yamaha RX-V500D | iPad | Windows 10 | Serviio 1.9 Pro
WinHelper | MediaInfo

Beta Tester, Moderator
Please do not PM me for support as any solution cannot be shared with others.

Return to Transcoding

Who is online

Users browsing this forum: No registered users and 2 guests

cron
Powered by phpBB © 2000, 2002, 2005, 2007 phpBB Group.
Designed by ST Software for PTF.