Post Wed Jan 10, 2018 5:50 pm

LG TV and HEVC transcoding problem

Hi i have Serviio 1.9 and LG TV HEVC codec transcoding problem.
When i use "LG TV / player" profile Serviio dont trying transcoding file, but if i change profile to "Sony Bravia TV 2012" (for example), transcoding is started.
My TV cant play HEVC, i tryed play file from USB.

Serviio: v1.9 on Synology NAS DS918+ (x86).
TV: LG47LA660V-ZA

  Code:
ffmpeg version 2.7.1 Copyright (c) 2000-2015 the FFmpeg developers
  built with gcc 4.9.3 (crosstool-NG 1.20.0) 20150311 (prerelease)
  configuration: --prefix=/usr --incdir='${prefix}/include/ffmpeg' --arch=i686 --target-os=linux --cross-prefix=/usr/local/x86_64-pc-linux-gnu/bin/x86_64-pc-linux-gnu- --enable-cross-compile --enable-optimizations --enable-pic --enable-gpl --enable-shared --disable-static --enable-version3 --enable-nonfree --enable-libfaac --enable-encoders --enable-pthreads --disable-bzlib --disable-protocol=rtp --disable-muxer=image2 --disable-muxer=image2pipe --disable-swscale-alpha --disable-ffserver --disable-ffplay --disable-devices --disable-bzlib --disable-altivec --enable-libopencore-amrnb --enable-libopencore-amrwb --enable-libmp3lame --disable-vaapi --disable-decoder=amrnb --disable-encoder=zmbv --disable-encoder=dca --disable-encoder=ac3 --disable-encoder=ac3_fixed --disable-encoder=eac3 --disable-decoder=dca --disable-decoder=eac3 --disable-decoder=truehd --cc=/usr/local/x86_64-pc-linux-gnu/bin/x86_64-pc-linux-gnu-ccache-gcc --enable-yasm --enable-libx264 --enable-encoder=libx264
  libavutil      54. 27.100 / 54. 27.100
  libavcodec     56. 41.100 / 56. 41.100
  libavformat    56. 36.100 / 56. 36.100
  libavdevice    56.  4.100 / 56.  4.100
  libavfilter     5. 16.101 /  5. 16.101
  libswscale      3.  1.101 /  3.  1.101
  libswresample   1.  2.100 /  1.  2.100
  libpostproc    53.  3.100 / 53.  3.100
Input #0, matroska,webm, from 'Beyond Skyline (2017) BDRip 1080p [HEVC].mkv':
  Metadata:
    title           : Beyond.Skyline.2017.BDREMUX.1080p.ExKinoRay
    encoder         : libebml v1.3.4 + libmatroska v1.4.5
    creation_time   : 2018-01-01 10:41:32
  Duration: 01:46:38.69, start: 0.000000, bitrate: 5832 kb/s
    Chapter #0:0: start 0.000000, end 462.587000
    Metadata:
      title           : 00:00:00.000
    Chapter #0:1: start 462.587000, end 1006.172000
    Metadata:
      title           : 00:07:42.587
    Chapter #0:2: start 1006.172000, end 1448.946000
    Metadata:
      title           : 00:16:46.172
    Chapter #0:3: start 1448.946000, end 1999.998000
    Metadata:
      title           : 00:24:08.947
    Chapter #0:4: start 1999.998000, end 2531.112000
    Metadata:
      title           : 00:33:19.998
    Chapter #0:5: start 2531.112000, end 3067.439000
    Metadata:
      title           : 00:42:11.112
    Chapter #0:6: start 3067.439000, end 3595.717000
    Metadata:
      title           : 00:51:07.439
    Chapter #0:7: start 3595.717000, end 4089.627000
    Metadata:
      title           : 00:59:55.717
    Chapter #0:8: start 4089.627000, end 4715.961000
    Metadata:
      title           : 01:08:09.627
    Chapter #0:9: start 4715.961000, end 5219.089000
    Metadata:
      title           : 01:18:35.961
    Chapter #0:10: start 5219.089000, end 5750.453000
    Metadata:
      title           : 01:26:59.089
    Chapter #0:11: start 5750.453000, end 6398.688000
    Metadata:
      title           : 01:35:50.453
    Stream #0:0: Video: hevc (Main), yuvj420p(pc, bt709), 1920x804 [SAR 1:1 DAR 160:67], 23.98 fps, 23.98 tbr, 1k tbn, 23.98 tbc (default)
    Metadata:
      BPS             : 5446197
      BPS-eng         : 5446197
      DURATION        : 01:46:38.392000000
      DURATION-eng    : 01:46:38.392000000
      NUMBER_OF_FRAMES: 153408
      NUMBER_OF_FRAMES-eng: 153408
      NUMBER_OF_BYTES : 4355863146
      NUMBER_OF_BYTES-eng: 4355863146
      _STATISTICS_WRITING_APP: mkvmerge v9.5.0 ('Quiet Fire') 64bit
      _STATISTICS_WRITING_APP-eng: mkvmerge v9.5.0 ('Quiet Fire') 64bit
      _STATISTICS_WRITING_DATE_UTC: 2018-01-01 10:41:32
      _STATISTICS_WRITING_DATE_UTC-eng: 2018-01-01 10:41:32
      _STATISTICS_TAGS: BPS DURATION NUMBER_OF_FRAMES NUMBER_OF_BYTES
      _STATISTICS_TAGS-eng: BPS DURATION NUMBER_OF_FRAMES NUMBER_OF_BYTES
    Stream #0:1(rus): Audio: ac3, 48000 Hz, 5.1(side), fltp, 384 kb/s (default)
    Metadata:
      BPS             : 384000
      BPS-eng         : 384000
      DURATION        : 01:46:38.688000000
      DURATION-eng    : 01:46:38.688000000
      NUMBER_OF_FRAMES: 199959
      NUMBER_OF_FRAMES-eng: 199959
      NUMBER_OF_BYTES : 307137024
      NUMBER_OF_BYTES-eng: 307137024
      _STATISTICS_WRITING_APP: mkvmerge v9.5.0 ('Quiet Fire') 64bit
      _STATISTICS_WRITING_APP-eng: mkvmerge v9.5.0 ('Quiet Fire') 64bit
      _STATISTICS_WRITING_DATE_UTC: 2018-01-01 10:41:32
      _STATISTICS_WRITING_DATE_UTC-eng: 2018-01-01 10:41:32
      _STATISTICS_TAGS: BPS DURATION NUMBER_OF_FRAMES NUMBER_OF_BYTES
      _STATISTICS_TAGS-eng: BPS DURATION NUMBER_OF_FRAMES NUMBER_OF_BYTES
    Stream #0:2: Video: mjpeg, yuvj420p(pc, bt470bg/unknown/unknown), 462x500 [SAR 96:96 DAR 231:250], 90k tbr, 90k tbn, 90k tbc
    Metadata:
      filename        : cover.jpg
      mimetype        : image/jpeg