FAQ  •  Register  •  Login

Impossible to transcode E-AC-3 audio

<<

atc98092

User avatar

DLNA master

Posts: 2759

Joined: Fri Aug 17, 2012 10:22 pm

Location: Washington (the state)

Post Sun Nov 19, 2017 10:06 pm

Re: Impossible to transcode E-AC-3 audio

Looking at the Sony 2013 profile (assuming you are using that one) I see that EAC-3 decoding is not configured for all container types. You didn't say what container your video is in, as you only posted the video section of the media info page. I only see it transcoding for MKV, AVI, FLV and WTV containers.
Dan

Panasonic ST30 Plasma, Samsung JU7100 4K TV, Sony BDP-S3500, Sharp 4K Roku TV, Insignia Roku TV, Roku 4, Ultra and Stick, Yamaha RX-V583 AVR.
Primary server: Intel i5-6400, 8 gig ram, Windows 10 Pro, 18 TB hard drive space | Test server Windows 7 Home Premium, AMD Phenom II X4 965, 8 gig ram

HOWTO: Enable debug logging HOWTO: Identify media file contents
<<

bembe

Serviio newbie

Posts: 5

Joined: Mon Jul 27, 2015 1:22 pm

Post Mon Nov 20, 2017 1:40 pm

Re: Impossible to transcode E-AC-3 audio

atc98092 wrote:Looking at the Sony 2013 profile (assuming you are using that one) I see that EAC-3 decoding is not configured for all container types. You didn't say what container your video is in, as you only posted the video section of the media info page. I only see it transcoding for MKV, AVI, FLV and WTV containers.


Yes, I'm using Sony 2013/2014 profile.
Here's the full info:

Format : Matroska
Format version : Version 4 / Version 2
File size : 4.30 GiB
Duration : 41 min 8 s
Overall bit rate mode : Variable
Overall bit rate : 15.0 Mb/s
Writing application : mkvmerge v6.7.0 ('Back to the Ground') 64bit built on Jan 8 2014 15:10:52
Writing library : libebml v1.3.0 + libmatroska v1.4.1

Video
ID : 1
Format : AVC
Format/Info : Advanced Video Codec
Format profile : High@L4
Format settings : CABAC / 4 Ref Frames
Format settings, CABAC : Yes
Format settings, RefFrames : 4 frames
Codec ID : V_MPEG4/ISO/AVC
Duration : 41 min 8 s
Bit rate mode : Variable
Bit rate : 14.0 Mb/s
Maximum bit rate : 15.0 Mb/s
Width : 1 920 pixels
Height : 1 080 pixels
Display aspect ratio : 16:9
Frame rate mode : Constant
Frame rate : 23.976 (24000/1001) FPS
Color space : YUV
Chroma subsampling : 4:2:0
Bit depth : 8 bits
Scan type : Progressive
Bits/(Pixel*Frame) : 0.282
Stream size : 4.03 GiB (94%)
Default : Yes
Forced : No
Color range : Limited
Color primaries : BT.709
Transfer characteristics : BT.709
Matrix coefficients : BT.709

Audio
ID : 2
Format : E-AC-3
Format/Info : Enhanced Audio Coding 3
Format settings, Endianness : Big
Codec ID : A_EAC3
Duration : 41 min 8 s
Bit rate mode : Constant
Bit rate : 640 kb/s
Channel(s) : 6 channels
Channel positions : Front: L C R, Side: L R, LFE
Sampling rate : 48.0 kHz
Frame rate : 187.500 FPS (256 SPF)
Compression mode : Lossy
Stream size : 188 MiB (4%)
Language : English
Service kind : Complete Main
Default : Yes
Forced : No
<<

atc98092

User avatar

DLNA master

Posts: 2759

Joined: Fri Aug 17, 2012 10:22 pm

Location: Washington (the state)

Post Tue Nov 21, 2017 3:49 am

Re: Impossible to transcode E-AC-3 audio

Thanks for the update. I don't have any videos with EAC-3 audio, so I can't test this myself. Have to let Zip or someone with such a video to take a look.

Also, I suggest changing your logging to debug, attempt to play the video, then post the log file here. Then someone with a stronger understanding can check it for any issues.
Dan

Panasonic ST30 Plasma, Samsung JU7100 4K TV, Sony BDP-S3500, Sharp 4K Roku TV, Insignia Roku TV, Roku 4, Ultra and Stick, Yamaha RX-V583 AVR.
Primary server: Intel i5-6400, 8 gig ram, Windows 10 Pro, 18 TB hard drive space | Test server Windows 7 Home Premium, AMD Phenom II X4 965, 8 gig ram

HOWTO: Enable debug logging HOWTO: Identify media file contents
<<

bembe

Serviio newbie

Posts: 5

Joined: Mon Jul 27, 2015 1:22 pm

Post Tue Nov 21, 2017 9:09 am

Re: Impossible to transcode E-AC-3 audio

Hi.
Here's the debug log. I hope I've done it right.

  Code:
2017-11-21 10:05:46,587 DEBUG [RendererDAOImpl] Reading a Renderer with ip address 192.168.0.11
2017-11-21 10:05:46,587 DEBUG [ServiceDescriptionRequestHandler] ServiceDescription request received for service ContentDirectory
2017-11-21 10:05:46,588 DEBUG [ServiceDescriptionRequestHandler] Sending ServiceDescription XML back
2017-11-21 10:05:46,593 DEBUG [ServiioHttpService] Incoming request from /192.168.0.11:50468: GET /serviceDescription/X_MS_MediaReceiverRegistrar HTTP/1.1, headers = [Host: 192.168.0.17:8895,Date: Tue, 21 Nov 2017 09:05:19 GMT,User-Agent: UPnP/1.0,X-AV-Physical-Unit-Info: pa="BRAVIA KDL-48W605B";,X-AV-Client-Info: av=5.0; cn="Sony Corporation"; mn="BRAVIA KDL-48W605B"; mv="1.7";]]
2017-11-21 10:05:46,599 DEBUG [RendererDAOImpl] Reading a Renderer with ip address 192.168.0.11
2017-11-21 10:05:46,599 DEBUG [ServiceDescriptionRequestHandler] ServiceDescription request received for service X_MS_MediaReceiverRegistrar
2017-11-21 10:05:46,599 DEBUG [ServiceDescriptionRequestHandler] Sending ServiceDescription XML back
2017-11-21 10:05:46,865 DEBUG [ServiioHttpService] Incoming request from /192.168.0.11:50469: GET /deviceDescription/a3deea81-27a6-3262-90c0-6846b0454682 HTTP/1.1, headers = [Host: 192.168.0.17:8895,Date: Tue, 21 Nov 2017 09:05:19 GMT,User-Agent: UPnP/1.0,X-AV-Physical-Unit-Info: pa="BRAVIA KDL-48W605B";,X-AV-Client-Info: av=5.0; cn="Sony Corporation"; mn="BRAVIA KDL-48W605B"; mv="1.7";]]
2017-11-21 10:05:46,865 DEBUG [RendererDAOImpl] Reading a Renderer with ip address 192.168.0.11
2017-11-21 10:05:46,866 DEBUG [DeviceDescriptionRequestHandler] DeviceDescription request received for device a3deea81-27a6-3262-90c0-6846b0454682 from 192.168.0.11 (headers = [Host: 192.168.0.17:8895,Date: Tue, 21 Nov 2017 09:05:19 GMT,User-Agent: UPnP/1.0,X-AV-Physical-Unit-Info: pa="BRAVIA KDL-48W605B";,X-AV-Client-Info: av=5.0; cn="Sony Corporation"; mn="BRAVIA KDL-48W605B"; mv="1.7";])
2017-11-21 10:05:46,866 DEBUG [RendererDAOImpl] Reading a Renderer with ip address 192.168.0.11
2017-11-21 10:05:46,866 DEBUG [RendererManager] Looking for a renderer profile for Http headers: [Host: 192.168.0.17:8895,Date: Tue, 21 Nov 2017 09:05:19 GMT,User-Agent: UPnP/1.0,X-AV-Physical-Unit-Info: pa="BRAVIA KDL-48W605B";,X-AV-Client-Info: av=5.0; cn="Sony Corporation"; mn="BRAVIA KDL-48W605B"; mv="1.7";]
2017-11-21 10:05:46,866 DEBUG [RendererDAOImpl] Reading a Renderer with ip address 192.168.0.11
2017-11-21 10:05:46,866 DEBUG [DeviceDescriptionRequestHandler] Sending DeviceDescription XML back using profile 'Sony Bravia TV (2013/14)'
2017-11-21 10:05:46,884 DEBUG [ServiioHttpService] Incoming request from /192.168.0.11:50470: GET /serviceDescription/ConnectionManager HTTP/1.1, headers = [Host: 192.168.0.17:8895,Date: Tue, 21 Nov 2017 09:05:19 GMT,User-Agent: UPnP/1.0,X-AV-Physical-Unit-Info: pa="BRAVIA KDL-48W605B";,X-AV-Client-Info: av=5.0; cn="Sony Corporation"; mn="BRAVIA KDL-48W605B"; mv="1.7";]]
2017-11-21 10:05:46,884 DEBUG [RendererDAOImpl] Reading a Renderer with ip address 192.168.0.11
2017-11-21 10:05:46,885 DEBUG [ServiceDescriptionRequestHandler] ServiceDescription request received for service ConnectionManager
2017-11-21 10:05:46,885 DEBUG [ServiceDescriptionRequestHandler] Sending ServiceDescription XML back
2017-11-21 10:05:46,891 DEBUG [ServiioHttpService] Incoming request from /192.168.0.11:50471: GET /serviceDescription/ContentDirectory HTTP/1.1, headers = [Host: 192.168.0.17:8895,Date: Tue, 21 Nov 2017 09:05:19 GMT,User-Agent: UPnP/1.0,X-AV-Physical-Unit-Info: pa="BRAVIA KDL-48W605B";,X-AV-Client-Info: av=5.0; cn="Sony Corporation"; mn="BRAVIA KDL-48W605B"; mv="1.7";]]
2017-11-21 10:05:46,891 DEBUG [RendererDAOImpl] Reading a Renderer with ip address 192.168.0.11
2017-11-21 10:05:46,891 DEBUG [ServiceDescriptionRequestHandler] ServiceDescription request received for service ContentDirectory
2017-11-21 10:05:46,891 DEBUG [ServiceDescriptionRequestHandler] Sending ServiceDescription XML back
2017-11-21 10:05:46,904 DEBUG [ServiioHttpService] Incoming request from /192.168.0.11:50472: GET /serviceDescription/X_MS_MediaReceiverRegistrar HTTP/1.1, headers = [Host: 192.168.0.17:8895,Date: Tue, 21 Nov 2017 09:05:19 GMT,User-Agent: UPnP/1.0,X-AV-Physical-Unit-Info: pa="BRAVIA KDL-48W605B";,X-AV-Client-Info: av=5.0; cn="Sony Corporation"; mn="BRAVIA KDL-48W605B"; mv="1.7";]]
2017-11-21 10:05:46,904 DEBUG [RendererDAOImpl] Reading a Renderer with ip address 192.168.0.11
2017-11-21 10:05:46,904 DEBUG [ServiceDescriptionRequestHandler] ServiceDescription request received for service X_MS_MediaReceiverRegistrar
2017-11-21 10:05:46,904 DEBUG [ServiceDescriptionRequestHandler] Sending ServiceDescription XML back
2017-11-21 10:05:46,907 DEBUG [ServiioHttpService] Incoming request from /192.168.0.11:50473: GET /deviceDescription/a3deea81-27a6-3262-90c0-6846b0454682 HTTP/1.1, headers = [Host: 192.168.0.17:8895,Date: Tue, 21 Nov 2017 09:05:19 GMT,User-Agent: UPnP/1.0,X-AV-Physical-Unit-Info: pa="BRAVIA KDL-48W605B";,X-AV-Client-Info: av=5.0; cn="Sony Corporation"; mn="BRAVIA KDL-48W605B"; mv="1.7";]]
2017-11-21 10:05:46,907 DEBUG [RendererDAOImpl] Reading a Renderer with ip address 192.168.0.11
2017-11-21 10:05:46,907 DEBUG [DeviceDescriptionRequestHandler] DeviceDescription request received for device a3deea81-27a6-3262-90c0-6846b0454682 from 192.168.0.11 (headers = [Host: 192.168.0.17:8895,Date: Tue, 21 Nov 2017 09:05:19 GMT,User-Agent: UPnP/1.0,X-AV-Physical-Unit-Info: pa="BRAVIA KDL-48W605B";,X-AV-Client-Info: av=5.0; cn="Sony Corporation"; mn="BRAVIA KDL-48W605B"; mv="1.7";])
2017-11-21 10:05:46,908 DEBUG [RendererDAOImpl] Reading a Renderer with ip address 192.168.0.11
2017-11-21 10:05:46,908 DEBUG [RendererManager] Looking for a renderer profile for Http headers: [Host: 192.168.0.17:8895,Date: Tue, 21 Nov 2017 09:05:19 GMT,User-Agent: UPnP/1.0,X-AV-Physical-Unit-Info: pa="BRAVIA KDL-48W605B";,X-AV-Client-Info: av=5.0; cn="Sony Corporation"; mn="BRAVIA KDL-48W605B"; mv="1.7";]
2017-11-21 10:05:46,908 DEBUG [RendererDAOImpl] Reading a Renderer with ip address 192.168.0.11
2017-11-21 10:05:46,908 DEBUG [DeviceDescriptionRequestHandler] Sending DeviceDescription XML back using profile 'Sony Bravia TV (2013/14)'
2017-11-21 10:05:46,912 DEBUG [ServiioHttpService] Incoming request from /192.168.0.11:50474: GET /serviceDescription/ConnectionManager HTTP/1.1, headers = [Host: 192.168.0.17:8895,Date: Tue, 21 Nov 2017 09:05:19 GMT,User-Agent: UPnP/1.0,X-AV-Physical-Unit-Info: pa="BRAVIA KDL-48W605B";,X-AV-Client-Info: av=5.0; cn="Sony Corporation"; mn="BRAVIA KDL-48W605B"; mv="1.7";]]
2017-11-21 10:05:46,912 DEBUG [RendererDAOImpl] Reading a Renderer with ip address 192.168.0.11
2017-11-21 10:05:46,912 DEBUG [ServiceDescriptionRequestHandler] ServiceDescription request received for service ConnectionManager
2017-11-21 10:05:46,913 DEBUG [ServiceDescriptionRequestHandler] Sending ServiceDescription XML back
2017-11-21 10:05:46,916 DEBUG [ServiioHttpService] Incoming request from /192.168.0.11:50475: GET /serviceDescription/ContentDirectory HTTP/1.1, headers = [Host: 192.168.0.17:8895,Date: Tue, 21 Nov 2017 09:05:19 GMT,User-Agent: UPnP/1.0,X-AV-Physical-Unit-Info: pa="BRAVIA KDL-48W605B";,X-AV-Client-Info: av=5.0; cn="Sony Corporation"; mn="BRAVIA KDL-48W605B"; mv="1.7";]]
2017-11-21 10:05:46,916 DEBUG [RendererDAOImpl] Reading a Renderer with ip address 192.168.0.11
2017-11-21 10:05:46,917 DEBUG [ServiceDescriptionRequestHandler] ServiceDescription request received for service ContentDirectory
2017-11-21 10:05:46,917 DEBUG [ServiceDescriptionRequestHandler] Sending ServiceDescription XML back
2017-11-21 10:05:46,924 DEBUG [ServiioHttpService] Incoming request from /192.168.0.11:50476: GET /serviceDescription/X_MS_MediaReceiverRegistrar HTTP/1.1, headers = [Host: 192.168.0.17:8895,Date: Tue, 21 Nov 2017 09:05:19 GMT,User-Agent: UPnP/1.0,X-AV-Physical-Unit-Info: pa="BRAVIA KDL-48W605B";,X-AV-Client-Info: av=5.0; cn="Sony Corporation"; mn="BRAVIA KDL-48W605B"; mv="1.7";]]
2017-11-21 10:05:46,924 DEBUG [RendererDAOImpl] Reading a Renderer with ip address 192.168.0.11
2017-11-21 10:05:46,924 DEBUG [ServiceDescriptionRequestHandler] ServiceDescription request received for service X_MS_MediaReceiverRegistrar
2017-11-21 10:05:46,924 DEBUG [ServiceDescriptionRequestHandler] Sending ServiceDescription XML back
2017-11-21 10:05:46,927 DEBUG [ServiioHttpService] Incoming request from /192.168.0.11:50477: GET /deviceDescription/a3deea81-27a6-3262-90c0-6846b0454682 HTTP/1.1, headers = [Host: 192.168.0.17:8895,Date: Tue, 21 Nov 2017 09:05:19 GMT,User-Agent: UPnP/1.0,X-AV-Physical-Unit-Info: pa="BRAVIA KDL-48W605B";,X-AV-Client-Info: av=5.0; cn="Sony Corporation"; mn="BRAVIA KDL-48W605B"; mv="1.7";]]
2017-11-21 10:05:46,927 DEBUG [RendererDAOImpl] Reading a Renderer with ip address 192.168.0.11
2017-11-21 10:05:46,927 DEBUG [DeviceDescriptionRequestHandler] DeviceDescription request received for device a3deea81-27a6-3262-90c0-6846b0454682 from 192.168.0.11 (headers = [Host: 192.168.0.17:8895,Date: Tue, 21 Nov 2017 09:05:19 GMT,User-Agent: UPnP/1.0,X-AV-Physical-Unit-Info: pa="BRAVIA KDL-48W605B";,X-AV-Client-Info: av=5.0; cn="Sony Corporation"; mn="BRAVIA KDL-48W605B"; mv="1.7";])
2017-11-21 10:05:46,927 DEBUG [RendererDAOImpl] Reading a Renderer with ip address 192.168.0.11
2017-11-21 10:05:46,927 DEBUG [RendererManager] Looking for a renderer profile for Http headers: [Host: 192.168.0.17:8895,Date: Tue, 21 Nov 2017 09:05:19 GMT,User-Agent: UPnP/1.0,X-AV-Physical-Unit-Info: pa="BRAVIA KDL-48W605B";,X-AV-Client-Info: av=5.0; cn="Sony Corporation"; mn="BRAVIA KDL-48W605B"; mv="1.7";]
2017-11-21 10:05:46,928 DEBUG [RendererDAOImpl] Reading a Renderer with ip address 192.168.0.11
2017-11-21 10:05:46,928 DEBUG [DeviceDescriptionRequestHandler] Sending DeviceDescription XML back using profile 'Sony Bravia TV (2013/14)'
2017-11-21 10:05:46,932 DEBUG [ServiioHttpService] Incoming request from /192.168.0.11:50478: GET /serviceDescription/ConnectionManager HTTP/1.1, headers = [Host: 192.168.0.17:8895,Date: Tue, 21 Nov 2017 09:05:19 GMT,User-Agent: UPnP/1.0,X-AV-Physical-Unit-Info: pa="BRAVIA KDL-48W605B";,X-AV-Client-Info: av=5.0; cn="Sony Corporation"; mn="BRAVIA KDL-48W605B"; mv="1.7";]]
2017-11-21 10:05:46,932 DEBUG [RendererDAOImpl] Reading a Renderer with ip address 192.168.0.11
2017-11-21 10:05:46,932 DEBUG [ServiceDescriptionRequestHandler] ServiceDescription request received for service ConnectionManager
2017-11-21 10:05:46,932 DEBUG [ServiceDescriptionRequestHandler] Sending ServiceDescription XML back
2017-11-21 10:05:46,936 DEBUG [ServiioHttpService] Incoming request from /192.168.0.11:50479: GET /serviceDescription/ContentDirectory HTTP/1.1, headers = [Host: 192.168.0.17:8895,Date: Tue, 21 Nov 2017 09:05:19 GMT,User-Agent: UPnP/1.0,X-AV-Physical-Unit-Info: pa="BRAVIA KDL-48W605B";,X-AV-Client-Info: av=5.0; cn="Sony Corporation"; mn="BRAVIA KDL-48W605B"; mv="1.7";]]
2017-11-21 10:05:46,936 DEBUG [RendererDAOImpl] Reading a Renderer with ip address 192.168.0.11
2017-11-21 10:05:46,936 DEBUG [ServiceDescriptionRequestHandler] ServiceDescription request received for service ContentDirectory
2017-11-21 10:05:46,936 DEBUG [ServiceDescriptionRequestHandler] Sending ServiceDescription XML back
2017-11-21 10:05:46,942 DEBUG [ServiioHttpService] Incoming request from /192.168.0.11:50480: GET /serviceDescription/X_MS_MediaReceiverRegistrar HTTP/1.1, headers = [Host: 192.168.0.17:8895,Date: Tue, 21 Nov 2017 09:05:19 GMT,User-Agent: UPnP/1.0,X-AV-Physical-Unit-Info: pa="BRAVIA KDL-48W605B";,X-AV-Client-Info: av=5.0; cn="Sony Corporation"; mn="BRAVIA KDL-48W605B"; mv="1.7";]]
2017-11-21 10:05:46,942 DEBUG [RendererDAOImpl] Reading a Renderer with ip address 192.168.0.11
2017-11-21 10:05:46,943 DEBUG [ServiceDescriptionRequestHandler] ServiceDescription request received for service X_MS_MediaReceiverRegistrar
2017-11-21 10:05:46,943 DEBUG [ServiceDescriptionRequestHandler] Sending ServiceDescription XML back
2017-11-21 10:05:48,302 DEBUG [DiscoverySSDPMessageListener] Received a valid NOTIFY (ssdp:byebye) message from Renderer 00000000-0000-1010-8000-fcf152fe0d55 from address 192.168.0.11
2017-11-21 10:05:48,302 DEBUG [DiscoverySSDPMessageListener] Received a valid NOTIFY (ssdp:byebye) message from Renderer 00000000-0000-1010-8000-fcf152fe0d55 from address 192.168.0.11
2017-11-21 10:05:48,304 DEBUG [RendererManager] Removing renderer 00000000-0000-1010-8000-fcf152fe0d55 from list of active renderers
2017-11-21 10:05:48,304 INFO  [PlaybackEventsManager] Playback of media item 2666 (803 [803.mkv]) has stopped at 0% on Identifier=192.168.0.11, Profile=Sony Bravia TV (2013/14), Name=KDL-48W605B
2017-11-21 10:05:48,510 DEBUG [RendererSearchSender] Finished searching for Renderer devices
2017-11-21 10:05:48,614 DEBUG [DiscoverySSDPMessageListener] Received a valid NOTIFY (ssdp:byebye) message from Renderer 00000000-0000-1010-8000-fcf152fe0d55 from address 192.168.0.11
2017-11-21 10:05:48,614 DEBUG [DiscoverySSDPMessageListener] Received a valid NOTIFY (ssdp:byebye) message from Renderer 00000000-0000-1010-8000-fcf152fe0d55 from address 192.168.0.11
2017-11-21 10:05:48,817 DEBUG [DiscoverySSDPMessageListener] Received a valid NOTIFY (ssdp:byebye) message from Renderer 00000000-0000-1010-8000-fcf152fe0d55 from address 192.168.0.11
2017-11-21 10:05:48,817 DEBUG [DiscoverySSDPMessageListener] Received a valid NOTIFY (ssdp:byebye) message from Renderer 00000000-0000-1010-8000-fcf152fe0d55 from address 192.168.0.11
2017-11-21 10:05:49,120 DEBUG [DiscoverySSDPMessageListener] Received a valid NOTIFY (ssdp:byebye) message from Renderer 00000000-0000-1010-8000-fcf152fe0d55 from address 192.168.0.11
2017-11-21 10:05:49,120 DEBUG [DiscoverySSDPMessageListener] Received a valid NOTIFY (ssdp:byebye) message from Renderer 00000000-0000-1010-8000-fcf152fe0d55 from address 192.168.0.11
2017-11-21 10:05:51,635 DEBUG [DiscoverySSDPMessageListener] Received a valid M-SEARCH message for search target urn:schemas-sony-com:service:ScalarWebAPI:1 from address /192.168.0.12:54143s
2017-11-21 10:05:51,635 DEBUG [DiscoverySSDPMessageListener] Received a valid M-SEARCH message for search target urn:schemas-sony-com:service:ScalarWebAPI:1 from address /192.168.0.12:54143s
2017-11-21 10:05:51,636 DEBUG [DiscoverySSDPMessageListener] Received a valid M-SEARCH message for search target urn:schemas-sony-com:service:IRCC:1 from address /192.168.0.12:54143s
2017-11-21 10:05:51,636 DEBUG [DiscoverySSDPMessageListener] Received a valid M-SEARCH message for search target urn:schemas-sony-com:service:IRCC:1 from address /192.168.0.12:54143s
2017-11-21 10:05:51,638 DEBUG [DiscoverySSDPMessageListener] Received a valid M-SEARCH message for search target urn:dial-multiscreen-org:service:dial:1 from address /192.168.0.12:54143s
2017-11-21 10:05:51,638 DEBUG [DiscoverySSDPMessageListener] Received a valid M-SEARCH message for search target urn:dial-multiscreen-org:service:dial:1 from address /192.168.0.12:54143s
2017-11-21 10:05:51,640 DEBUG [DiscoverySSDPMessageListener] Received a valid M-SEARCH message for search target urn:schemas-upnp-org:device:MediaServer:1 from address /192.168.0.12:54143s
2017-11-21 10:05:51,640 DEBUG [DiscoverySSDPMessageListener] Received a valid M-SEARCH message for search target urn:schemas-upnp-org:device:MediaServer:1 from address /192.168.0.12:54143s
2017-11-21 10:05:51,640 DEBUG [DiscoverySearchResponder] Sending 1 M-SEARCH response message(s) to /192.168.0.12:54143
2017-11-21 10:05:51,640 DEBUG [DiscoverySearchResponder] Sending 1 M-SEARCH response message(s) to /192.168.0.12:54143
2017-11-21 10:05:51,646 DEBUG [DiscoverySSDPMessageListener] Received a valid M-SEARCH message for search target ssdp:all from address /192.168.0.12:39867s
2017-11-21 10:05:51,646 DEBUG [DiscoverySSDPMessageListener] Received a valid M-SEARCH message for search target ssdp:all from address /192.168.0.12:39867s
2017-11-21 10:05:51,646 DEBUG [DiscoverySearchResponder] Sending 6 M-SEARCH response message(s) to /192.168.0.12:39867
2017-11-21 10:05:51,646 DEBUG [DiscoverySearchResponder] Sending 6 M-SEARCH response message(s) to /192.168.0.12:39867
2017-11-21 10:05:52,076 DEBUG [DiscoverySSDPMessageListener] Received a valid M-SEARCH message for search target ssdp:all from address /192.168.0.12:39867s
2017-11-21 10:05:52,076 DEBUG [DiscoverySSDPMessageListener] Received a valid M-SEARCH message for search target ssdp:all from address /192.168.0.12:39867s
2017-11-21 10:05:52,076 DEBUG [DiscoverySearchResponder] Sending 6 M-SEARCH response message(s) to /192.168.0.12:39867
2017-11-21 10:05:52,077 DEBUG [DiscoverySearchResponder] Sending 6 M-SEARCH response message(s) to /192.168.0.12:39867
2017-11-21 10:05:52,078 DEBUG [DiscoverySSDPMessageListener] Received a valid M-SEARCH message for search target urn:schemas-sony-com:service:ScalarWebAPI:1 from address /192.168.0.12:54143s
2017-11-21 10:05:52,078 DEBUG [DiscoverySSDPMessageListener] Received a valid M-SEARCH message for search target urn:schemas-sony-com:service:ScalarWebAPI:1 from address /192.168.0.12:54143s
2017-11-21 10:05:52,079 DEBUG [DiscoverySSDPMessageListener] Received a valid M-SEARCH message for search target urn:schemas-sony-com:service:IRCC:1 from address /192.168.0.12:54143s
2017-11-21 10:05:52,079 DEBUG [DiscoverySSDPMessageListener] Received a valid M-SEARCH message for search target urn:schemas-sony-com:service:IRCC:1 from address /192.168.0.12:54143s
2017-11-21 10:05:52,080 DEBUG [DiscoverySSDPMessageListener] Received a valid M-SEARCH message for search target urn:dial-multiscreen-org:service:dial:1 from address /192.168.0.12:54143s
2017-11-21 10:05:52,080 DEBUG [DiscoverySSDPMessageListener] Received a valid M-SEARCH message for search target urn:dial-multiscreen-org:service:dial:1 from address /192.168.0.12:54143s
2017-11-21 10:05:52,080 DEBUG [DiscoverySSDPMessageListener] Received a valid M-SEARCH message for search target urn:schemas-upnp-org:device:MediaServer:1 from address /192.168.0.12:54143s
2017-11-21 10:05:52,080 DEBUG [DiscoverySSDPMessageListener] Received a valid M-SEARCH message for search target urn:schemas-upnp-org:device:MediaServer:1 from address /192.168.0.12:54143s
2017-11-21 10:05:52,080 DEBUG [DiscoverySearchResponder] Sending 1 M-SEARCH response message(s) to /192.168.0.12:54143
2017-11-21 10:05:52,080 DEBUG [DiscoverySearchResponder] Sending 1 M-SEARCH response message(s) to /192.168.0.12:54143
2017-11-21 10:05:52,082 DEBUG [DiscoverySSDPMessageListener] Received a valid M-SEARCH message for search target urn:schemas-sony-com:service:ScalarWebAPI:1 from address /192.168.0.12:54143s
2017-11-21 10:05:52,082 DEBUG [DiscoverySSDPMessageListener] Received a valid M-SEARCH message for search target urn:schemas-sony-com:service:ScalarWebAPI:1 from address /192.168.0.12:54143s
2017-11-21 10:05:52,083 DEBUG [DiscoverySSDPMessageListener] Received a valid M-SEARCH message for search target urn:schemas-sony-com:service:IRCC:1 from address /192.168.0.12:54143s
2017-11-21 10:05:52,083 DEBUG [DiscoverySSDPMessageListener] Received a valid M-SEARCH message for search target urn:schemas-sony-com:service:IRCC:1 from address /192.168.0.12:54143s
2017-11-21 10:05:52,083 DEBUG [DiscoverySSDPMessageListener] Received a valid M-SEARCH message for search target urn:dial-multiscreen-org:service:dial:1 from address /192.168.0.12:54143s
2017-11-21 10:05:52,083 DEBUG [DiscoverySSDPMessageListener] Received a valid M-SEARCH message for search target urn:dial-multiscreen-org:service:dial:1 from address /192.168.0.12:54143s
2017-11-21 10:05:52,084 DEBUG [DiscoverySSDPMessageListener] Received a valid M-SEARCH message for search target urn:schemas-upnp-org:device:MediaServer:1 from address /192.168.0.12:54143s
2017-11-21 10:05:52,084 DEBUG [DiscoverySSDPMessageListener] Received a valid M-SEARCH message for search target urn:schemas-upnp-org:device:MediaServer:1 from address /192.168.0.12:54143s
2017-11-21 10:05:52,084 DEBUG [DiscoverySearchResponder] Sending 1 M-SEARCH response message(s) to /192.168.0.12:54143
2017-11-21 10:05:52,084 DEBUG [DiscoverySearchResponder] Sending 1 M-SEARCH response message(s) to /192.168.0.12:54143
2017-11-21 10:05:52,213 DEBUG [DiscoverySSDPMessageListener] Received a valid M-SEARCH message for search target ssdp:all from address /192.168.0.12:39867s
2017-11-21 10:05:52,213 DEBUG [DiscoverySSDPMessageListener] Received a valid M-SEARCH message for search target ssdp:all from address /192.168.0.12:39867s
2017-11-21 10:05:52,213 DEBUG [DiscoverySearchResponder] Sending 6 M-SEARCH response message(s) to /192.168.0.12:39867
2017-11-21 10:05:52,213 DEBUG [DiscoverySearchResponder] Sending 6 M-SEARCH response message(s) to /192.168.0.12:39867
2017-11-21 10:05:52,216 DEBUG [ServiioHttpService] Incoming request from /192.168.0.12:52612: GET /deviceDescription/a3deea81-27a6-3262-90c0-6846b0454682 HTTP/1.1, headers = [Host: 192.168.0.17:8895,Date: Tue, 21 Nov 2017 09:05:54 GMT,User-Agent: UPnP/1.0,X-AV-Client-Info: av=5.0; cn="Sony Corporation"; mn="Video & TV SideView"; mv="5.2.2";]]
2017-11-21 10:05:52,216 DEBUG [RendererDAOImpl] Reading a Renderer with ip address 192.168.0.12
2017-11-21 10:05:52,217 DEBUG [DeviceDescriptionRequestHandler] DeviceDescription request received for device a3deea81-27a6-3262-90c0-6846b0454682 from 192.168.0.12 (headers = [Host: 192.168.0.17:8895,Date: Tue, 21 Nov 2017 09:05:54 GMT,User-Agent: UPnP/1.0,X-AV-Client-Info: av=5.0; cn="Sony Corporation"; mn="Video & TV SideView"; mv="5.2.2";])
2017-11-21 10:05:52,217 DEBUG [RendererDAOImpl] Reading a Renderer with ip address 192.168.0.12
2017-11-21 10:05:52,217 DEBUG [RendererManager] Looking for a renderer profile for Http headers: [Host: 192.168.0.17:8895,Date: Tue, 21 Nov 2017 09:05:54 GMT,User-Agent: UPnP/1.0,X-AV-Client-Info: av=5.0; cn="Sony Corporation"; mn="Video & TV SideView"; mv="5.2.2";]
2017-11-21 10:05:52,217 DEBUG [RendererDAOImpl] Reading a Renderer with ip address 192.168.0.12
2017-11-21 10:05:52,218 DEBUG [DeviceDescriptionRequestHandler] Sending DeviceDescription XML back using profile 'Generic DLNA profile'
2017-11-21 10:05:52,226 DEBUG [ServiioHttpService] Incoming request from /192.168.0.12:52613: GET /serviceDescription/ConnectionManager HTTP/1.1, headers = [Host: 192.168.0.17:8895,Date: Tue, 21 Nov 2017 09:05:54 GMT,User-Agent: UPnP/1.0,X-AV-Client-Info: av=5.0; cn="Sony Corporation"; mn="Video & TV SideView"; mv="5.2.2";]]
2017-11-21 10:05:52,226 DEBUG [RendererDAOImpl] Reading a Renderer with ip address 192.168.0.12
2017-11-21 10:05:52,226 DEBUG [ServiceDescriptionRequestHandler] ServiceDescription request received for service ConnectionManager
2017-11-21 10:05:52,227 DEBUG [ServiceDescriptionRequestHandler] Sending ServiceDescription XML back
2017-11-21 10:05:52,239 DEBUG [ServiioHttpService] Incoming request from /192.168.0.12:52614: GET /serviceDescription/ContentDirectory HTTP/1.1, headers = [Host: 192.168.0.17:8895,Date: Tue, 21 Nov 2017 09:05:54 GMT,User-Agent: UPnP/1.0,X-AV-Client-Info: av=5.0; cn="Sony Corporation"; mn="Video & TV SideView"; mv="5.2.2";]]
2017-11-21 10:05:52,239 DEBUG [RendererDAOImpl] Reading a Renderer with ip address 192.168.0.12
2017-11-21 10:05:52,239 DEBUG [ServiceDescriptionRequestHandler] ServiceDescription request received for service ContentDirectory
2017-11-21 10:05:52,240 DEBUG [ServiceDescriptionRequestHandler] Sending ServiceDescription XML back
2017-11-21 10:05:52,247 DEBUG [ServiioHttpService] Incoming request from /192.168.0.12:52615: GET /serviceDescription/X_MS_MediaReceiverRegistrar HTTP/1.1, headers = [Host: 192.168.0.17:8895,Date: Tue, 21 Nov 2017 09:05:54 GMT,User-Agent: UPnP/1.0,X-AV-Client-Info: av=5.0; cn="Sony Corporation"; mn="Video & TV SideView"; mv="5.2.2";]]
2017-11-21 10:05:52,247 DEBUG [RendererDAOImpl] Reading a Renderer with ip address 192.168.0.12
2017-11-21 10:05:52,248 DEBUG [ServiceDescriptionRequestHandler] ServiceDescription request received for service X_MS_MediaReceiverRegistrar
2017-11-21 10:05:52,248 DEBUG [ServiceDescriptionRequestHandler] Sending ServiceDescription XML back
2017-11-21 10:05:52,256 DEBUG [ServiioHttpService] Incoming request from /192.168.0.12:52616: GET /deviceDescription/a3deea81-27a6-3262-90c0-6846b0454682 HTTP/1.1, headers = [Host: 192.168.0.17:8895,Date: Tue, 21 Nov 2017 09:05:54 GMT,User-Agent: UPnP/1.0,X-AV-Client-Info: av=5.0; cn="Sony Corporation"; mn="Video & TV SideView"; mv="5.2.2";]]
2017-11-21 10:05:52,256 DEBUG [RendererDAOImpl] Reading a Renderer with ip address 192.168.0.12
2017-11-21 10:05:52,256 DEBUG [DeviceDescriptionRequestHandler] DeviceDescription request received for device a3deea81-27a6-3262-90c0-6846b0454682 from 192.168.0.12 (headers = [Host: 192.168.0.17:8895,Date: Tue, 21 Nov 2017 09:05:54 GMT,User-Agent: UPnP/1.0,X-AV-Client-Info: av=5.0; cn="Sony Corporation"; mn="Video & TV SideView"; mv="5.2.2";])
2017-11-21 10:05:52,256 DEBUG [RendererDAOImpl] Reading a Renderer with ip address 192.168.0.12
2017-11-21 10:05:52,256 DEBUG [RendererManager] Looking for a renderer profile for Http headers: [Host: 192.168.0.17:8895,Date: Tue, 21 Nov 2017 09:05:54 GMT,User-Agent: UPnP/1.0,X-AV-Client-Info: av=5.0; cn="Sony Corporation"; mn="Video & TV SideView"; mv="5.2.2";]
2017-11-21 10:05:52,256 DEBUG [RendererDAOImpl] Reading a Renderer with ip address 192.168.0.12
2017-11-21 10:05:52,257 DEBUG [DeviceDescriptionRequestHandler] Sending DeviceDescription XML back using profile 'Generic DLNA profile'
2017-11-21 10:05:52,280 DEBUG [ServiioHttpService] Incoming request from /192.168.0.12:52617: GET /serviceDescription/ConnectionManager HTTP/1.1, headers = [Host: 192.168.0.17:8895,Date: Tue, 21 Nov 2017 09:05:54 GMT,User-Agent: UPnP/1.0,X-AV-Client-Info: av=5.0; cn="Sony Corporation"; mn="Video & TV SideView"; mv="5.2.2";]]
2017-11-21 10:05:52,280 DEBUG [RendererDAOImpl] Reading a Renderer with ip address 192.168.0.12
2017-11-21 10:05:52,280 DEBUG [ServiceDescriptionRequestHandler] ServiceDescription request received for service ConnectionManager
2017-11-21 10:05:52,280 DEBUG [ServiceDescriptionRequestHandler] Sending ServiceDescription XML back
2017-11-21 10:05:52,293 DEBUG [ServiioHttpService] Incoming request from /192.168.0.12:52618: GET /serviceDescription/ContentDirectory HTTP/1.1, headers = [Host: 192.168.0.17:8895,Date: Tue, 21 Nov 2017 09:05:54 GMT,User-Agent: UPnP/1.0,X-AV-Client-Info: av=5.0; cn="Sony Corporation"; mn="Video & TV SideView"; mv="5.2.2";]]
2017-11-21 10:05:52,293 DEBUG [RendererDAOImpl] Reading a Renderer with ip address 192.168.0.12
2017-11-21 10:05:52,293 DEBUG [ServiceDescriptionRequestHandler] ServiceDescription request received for service ContentDirectory
2017-11-21 10:05:52,293 DEBUG [ServiceDescriptionRequestHandler] Sending ServiceDescription XML back
2017-11-21 10:05:52,309 DEBUG [ServiioHttpService] Incoming request from /192.168.0.12:52619: GET /serviceDescription/X_MS_MediaReceiverRegistrar HTTP/1.1, headers = [Host: 192.168.0.17:8895,Date: Tue, 21 Nov 2017 09:05:54 GMT,User-Agent: UPnP/1.0,X-AV-Client-Info: av=5.0; cn="Sony Corporation"; mn="Video & TV SideView"; mv="5.2.2";]]
2017-11-21 10:05:52,309 DEBUG [RendererDAOImpl] Reading a Renderer with ip address 192.168.0.12
2017-11-21 10:05:52,309 DEBUG [ServiceDescriptionRequestHandler] ServiceDescription request received for service X_MS_MediaReceiverRegistrar
2017-11-21 10:05:52,309 DEBUG [ServiceDescriptionRequestHandler] Sending ServiceDescription XML back
2017-11-21 10:05:59,347 DEBUG [DiscoverySSDPMessageListener] Received a valid M-SEARCH message for search target uuid:00000000-0000-1010-8000-fcf152fe0d55 from address /192.168.0.12:39577s
2017-11-21 10:05:59,347 DEBUG [DiscoverySSDPMessageListener] Received a valid M-SEARCH message for search target uuid:00000000-0000-1010-8000-fcf152fe0d55 from address /192.168.0.12:39577s
2017-11-21 10:05:59,542 DEBUG [DiscoverySSDPMessageListener] Received a valid M-SEARCH message for search target uuid:00000000-0000-1010-8000-fcf152fe0d55 from address /192.168.0.12:39577s
2017-11-21 10:05:59,543 DEBUG [DiscoverySSDPMessageListener] Received a valid M-SEARCH message for search target uuid:00000000-0000-1010-8000-fcf152fe0d55 from address /192.168.0.12:39577s
2017-11-21 10:05:59,677 DEBUG [DiscoverySSDPMessageListener] Received a valid M-SEARCH message for search target uuid:00000000-0000-1010-8000-fcf152fe0d55 from address /192.168.0.12:39577s
2017-11-21 10:05:59,677 DEBUG [DiscoverySSDPMessageListener] Received a valid M-SEARCH message for search target uuid:00000000-0000-1010-8000-fcf152fe0d55 from address /192.168.0.12:39577s
2017-11-21 10:06:03,998 DEBUG [DiscoverySSDPMessageListener] Received a valid M-SEARCH message for search target uuid:00000000-0000-1010-8000-fcf152fe0d55 from address /192.168.0.12:39577s
2017-11-21 10:06:03,998 DEBUG [DiscoverySSDPMessageListener] Received a valid M-SEARCH message for search target uuid:00000000-0000-1010-8000-fcf152fe0d55 from address /192.168.0.12:39577s
2017-11-21 10:06:03,999 DEBUG [DiscoverySSDPMessageListener] Received a valid M-SEARCH message for search target uuid:00000000-0000-1010-8000-fcf152fe0d55 from address /192.168.0.12:39577s
2017-11-21 10:06:03,999 DEBUG [DiscoverySSDPMessageListener] Received a valid M-SEARCH message for search target uuid:00000000-0000-1010-8000-fcf152fe0d55 from address /192.168.0.12:39577s
2017-11-21 10:06:03,999 DEBUG [DiscoverySSDPMessageListener] Received a valid M-SEARCH message for search target uuid:00000000-0000-1010-8000-fcf152fe0d55 from address /192.168.0.12:39577s
2017-11-21 10:06:03,999 DEBUG [DiscoverySSDPMessageListener] Received a valid M-SEARCH message for search target uuid:00000000-0000-1010-8000-fcf152fe0d55 from address /192.168.0.12:39577s
2017-11-21 10:06:07,022 DEBUG [DiscoverySSDPMessageListener] Received a valid NOTIFY (ssdp:alive) message from Renderer 5f9ec1b3-ff59-19bb-8530-000678311825 from address 192.168.0.18
2017-11-21 10:06:07,022 DEBUG [RendererManager] Retrieve device description from http://192.168.0.18:8080/description.xml
2017-11-21 10:06:07,022 DEBUG [DiscoverySSDPMessageListener] Received a valid NOTIFY (ssdp:alive) message from Renderer 5f9ec1b3-ff59-19bb-8530-000678311825 from address 192.168.0.18
2017-11-21 10:06:07,082 DEBUG [RendererManager] Retrieve device description from http://192.168.0.18:8080/description.xml
2017-11-21 10:06:09,070 DEBUG [DiscoverySSDPMessageListener] Received a valid NOTIFY (ssdp:alive) message from Renderer 5f9ec1b3-ff59-19bb-8530-000678311825 from address 192.168.0.18
2017-11-21 10:06:09,070 DEBUG [RendererManager] Retrieve device description from http://192.168.0.18:8080/description.xml
2017-11-21 10:06:09,070 DEBUG [DiscoverySSDPMessageListener] Received a valid NOTIFY (ssdp:alive) message from Renderer 5f9ec1b3-ff59-19bb-8530-000678311825 from address 192.168.0.18
2017-11-21 10:06:09,127 DEBUG [RendererManager] Retrieve device description from http://192.168.0.18:8080/description.xml
2017-11-21 10:06:11,324 DEBUG [DiscoverySSDPMessageListener] Received a valid M-SEARCH message for search target uuid:00000000-0000-1010-8000-fcf152fe0d55 from address /192.168.0.12:39577s
2017-11-21 10:06:11,324 DEBUG [DiscoverySSDPMessageListener] Received a valid M-SEARCH message for search target uuid:00000000-0000-1010-8000-fcf152fe0d55 from address /192.168.0.12:39577s
2017-11-21 10:06:20,283 DEBUG [DiscoverySSDPMessageListener] Received a valid M-SEARCH message for search target uuid:00000000-0000-1010-8000-fcf152fe0d55 from address /192.168.0.12:45942s
2017-11-21 10:06:20,283 DEBUG [DiscoverySSDPMessageListener] Received a valid M-SEARCH message for search target uuid:00000000-0000-1010-8000-fcf152fe0d55 from address /192.168.0.12:45942s
2017-11-21 10:06:20,414 DEBUG [DiscoverySSDPMessageListener] Received a valid M-SEARCH message for search target uuid:00000000-0000-1010-8000-fcf152fe0d55 from address /192.168.0.12:45942s
2017-11-21 10:06:20,414 DEBUG [DiscoverySSDPMessageListener] Received a valid M-SEARCH message for search target uuid:00000000-0000-1010-8000-fcf152fe0d55 from address /192.168.0.12:45942s
2017-11-21 10:06:20,614 DEBUG [DiscoverySSDPMessageListener] Received a valid M-SEARCH message for search target uuid:00000000-0000-1010-8000-fcf152fe0d55 from address /192.168.0.12:45942s
2017-11-21 10:06:20,614 DEBUG [DiscoverySSDPMessageListener] Received a valid M-SEARCH message for search target uuid:00000000-0000-1010-8000-fcf152fe0d55 from address /192.168.0.12:45942s
<<

atc98092

User avatar

DLNA master

Posts: 2759

Joined: Fri Aug 17, 2012 10:22 pm

Location: Washington (the state)

Post Tue Nov 21, 2017 5:20 pm

Re: Impossible to transcode E-AC-3 audio

You did it right, but it's only a portion of the log. Can you attach the complete log here? Zip will want to see some stuff that isn't included here. It's a simple text file, so you can zip the file and make it extremely small.
Dan

Panasonic ST30 Plasma, Samsung JU7100 4K TV, Sony BDP-S3500, Sharp 4K Roku TV, Insignia Roku TV, Roku 4, Ultra and Stick, Yamaha RX-V583 AVR.
Primary server: Intel i5-6400, 8 gig ram, Windows 10 Pro, 18 TB hard drive space | Test server Windows 7 Home Premium, AMD Phenom II X4 965, 8 gig ram

HOWTO: Enable debug logging HOWTO: Identify media file contents
<<

bembe

Serviio newbie

Posts: 5

Joined: Mon Jul 27, 2015 1:22 pm

Post Wed Nov 22, 2017 11:08 am

Re: Impossible to transcode E-AC-3 audio

Here's the zipped .log file.
Attachments
serviio.zip
serviio.log
(14.83 KiB) Downloaded 60 times
<<

rb07

Serviio newbie

Posts: 1

Joined: Sun Dec 17, 2017 11:44 pm

Post Mon Dec 18, 2017 12:14 am

Re: Impossible to transcode E-AC-3 audio

Hi,

I have the same issue, with the same profile "Sony Bravia TV (2013/14)". Also using serviio version 1.9 (and 1.8 before that).

In the log, using debug mode, you get a few lines with:

2017-12-17 20:26:10,851 DEBUG [VideoDeliveryEngine] Delivering file 'Video.DDP5.1.x264.mkv' in native format


and nothing else about the details of the video file, which I guess means no transcoding at all.

The file details are a little bit different from the others shown in this thread:

Input #0, matroska,webm, from 'Video.DDP5.1.x264.mkv':
Stream #0:0: Video: h264 (High), yuv420p(tv, bt709, progressive), 1920x1080 [SAR 1:1 DAR 16:9], 23.98 fps, 23.98 tbr, 1k tbn, 47.95 tbc (default)
Stream #0:1(eng): Audio: eac3, 48000 Hz, 5.1(side), fltp, 640 kb/s (default)
Stream #0:2(eng): Subtitle: subrip

Does anyone know how to identify which part of the profile matched so no transcoding of the eac3 audio was 'requiered'?

BTW in the serviio configuration transcoding is enabled, also downmixing to stereo.

The ffmpeg on the system doesn't have any problem transcoding the file, I'm actually using it to convert those files into something the Bravia can play (i.e. ffmpeg -fix_sub_duration -i Video.DDP5.1.x264.mkv -c:v copy -c:s copy -c:a aac -ac 2 Video.AAC.x264.mkv).
<<

Andy8674

Serviio newbie

Posts: 4

Joined: Fri Dec 16, 2016 10:51 am

Post Thu Jan 04, 2018 1:42 pm

Re: Impossible to transcode E-AC-3 audio

Hello NOOB here,

can anyone offer a fix for my issue, i have been using Serviio pro for the last 5 years, just recently i have found i am unable to play certain files due to no sound, i use profile Sony BDP-Sx70/SMP-N100, the video players fine but im unable to lip read so cannot watch the file. could anyone offer advice on how to trouble shoot, turn on logging so someone more advance than i can interporate the logs?

mediainfo says the audio is E-AC-3
<<

philburg2

Serviio newbie

Posts: 1

Joined: Mon Feb 12, 2018 7:07 pm

Post Mon Feb 12, 2018 7:15 pm

Re: Impossible to transcode E-AC-3 audio

So I was able to get around this issue on my Sony BDP

1. Find your profile being used, mine was this. <Profile id="bdp2010" name="Sony BDP-Sx70/SMP-N100 (2010)" extendsProfileId="bdp2012">
2. Find your profiles.xml file, make a backup copy
3. I inserted the following two lines at the end to try and cover two codecs I didn't see in the profile for transcoding right after </video> section.
<Video targetContainer="mpegts" targetACodec="ac3" aBitrate="320" forceInheritance="true">
...
<Matches container="matroska" aCodec="aac" />
<Matches container="matroska" aCodec="eac3" />
4. restart serviio and test, worked immediately for me. EAC3 Seems to have shown up on the scene very recently so not surprising I needed to tweak an 8 year old profile but not my roku 4k profile.
<<

DenyAll

DLNA master

Posts: 2175

Joined: Fri Mar 08, 2013 11:16 pm

Location: Adelaide, Australia

Post Thu Feb 15, 2018 1:14 pm

Re: Impossible to transcode E-AC-3 audio

yes, it looks like the "Sony Bravia TV (2013/14)" could use some re-work. It transcodes eac3 for multiple files, but not where its an MKV file with h264 video.

To fix, edit the profile.xml file and in the "Sony Bravia TV (2013/14)" profile fin the line
    <Matches container="*" vCodec="h264" aCodec="flac" />
and directly below it add the line
    <Matches container="*" vCodec="h264" aCodec="eac3" />.

Save the file and restart your PC. This should work (I haven't the TV to test).
DenyAll
Panasonic Viera CS610A | Panasonic Viera V20A | Sony PS4 | Sony PS3 | Panasonic DMP-BD79 | Yamaha RX-V500D | iPad | Windows 10 | Serviio 1.9 Pro
WinHelper | MediaInfo

Beta Tester, Moderator
Please do not PM me for support as any solution cannot be shared with others.
<<

spencergs

Serviio newbie

Posts: 4

Joined: Sun Feb 18, 2018 5:36 pm

Post Sun Feb 18, 2018 6:06 pm

Re: Impossible to transcode E-AC-3 audio

I can confirm the entry from DenyAll gets the sound working in two channel, but do I have any chance to remux it to AC3 for multiple channel?

I use the profile "bdp2010". A file with "Stream #0.1(eng): Audio: ac3, 48000 Hz, 6 channels, s16" will play fine as surround sound. The eac3 file with "Stream #0.1(eng): Audio: eac3, 48000 Hz, 6 channels, s16" only plays with stereo since adding:
<Matches container="*" vCodec="h264" aCodec="eac3" />

What tricksy can I do (my question pertains to within Serviio) can I do to also play eac3 as ac3 with multi-channel.

Thanks in advance!

P.S. I since worked out the Sony player decodes the 6 channels for AC3 itself i.e. there is no remux line present for AC3. If I add "<Matches container="matroska" aCodec="ac3" />" then Serviio also sends the file with 2.0. I still don't understand whether it is possible to transcode EAC3 on the fly and send the six channels. I fear a manual convert is needed or I need to buy a newer player?!
<<

spencergs

Serviio newbie

Posts: 4

Joined: Sun Feb 18, 2018 5:36 pm

Post Mon Feb 19, 2018 9:14 am

Re: Impossible to transcode E-AC-3 audio

I am a happy bunny and found how to do it. After many hours of trying settings in the profile like "aMultichannel="true"", then it is much more simple.

Under menu Delivery -> Video settings: Audio Channel I just needed to set the option "Keep Original" instead "Downmix to stereo".

So Serviio continues to rock as the best media server!

A small help improvement may be to reference this setting next to aMultichannel under help of the following (i.e. I wasted a lot of time on this!):
http://serviio.org/index.php?option=com ... icle&id=24
<<

DenyAll

DLNA master

Posts: 2175

Joined: Fri Mar 08, 2013 11:16 pm

Location: Adelaide, Australia

Post Mon Feb 19, 2018 9:17 am

Re: Impossible to transcode E-AC-3 audio

Excellent - good to see you worked it out.
DenyAll
Panasonic Viera CS610A | Panasonic Viera V20A | Sony PS4 | Sony PS3 | Panasonic DMP-BD79 | Yamaha RX-V500D | iPad | Windows 10 | Serviio 1.9 Pro
WinHelper | MediaInfo

Beta Tester, Moderator
Please do not PM me for support as any solution cannot be shared with others.
<<

spencergs

Serviio newbie

Posts: 4

Joined: Sun Feb 18, 2018 5:36 pm

Post Tue Feb 20, 2018 10:48 pm

Re: Impossible to transcode E-AC-3 audio

So since I can confirm adding <Matches container="matroska" aCodec="eac3" /> works perfectly with profile "id="bdp2010", is there any chance to have this already added in the profile by default for the future? i.e. it would save an effort of editing and adding for users with that profile.

Thanks in advance!
<<

spencergs

Serviio newbie

Posts: 4

Joined: Sun Feb 18, 2018 5:36 pm

Post Sun Aug 26, 2018 1:16 pm

Re: Impossible to transcode E-AC-3 audio

Oh my - i just realized I found the same post as posted once before :lol: and answered myself!

Same confirmation here for EAC3 and same request that it could be added by default for the future to profile bdp2010.

Ty!

@Zip - since i have discovered this a second time, please add to the default profile - ty!
<<

zip

User avatar

Serviio developer / Site Admin

Posts: 16789

Joined: Sat Oct 24, 2009 12:24 pm

Location: London, UK

Post Mon Sep 03, 2018 8:30 pm

Re: Impossible to transcode E-AC-3 audio

will be in 1.10
Previous

Return to Transcoding

Who is online

Users browsing this forum: No registered users and 2 guests

Powered by phpBB © 2000, 2002, 2005, 2007 phpBB Group.
Designed by ST Software for PTF.