FAQ  •  Register  •  Login

Need Help: Arris Media Gateway (Moxi)

<<

SPyKER

Serviio newbie

Posts: 17

Joined: Tue Jan 03, 2012 10:01 am

Post Sat Feb 25, 2012 11:44 pm

Re: Need Help: Arris Media Gateway (Moxi)

So, went with just yours as mine didn't do crap!

Variety of interesting things...
This one played great video put no sound:
  Code:
General
Unique ID                                : 231453718476929982429615322468820126031 (0xAE205D5DFDDEF6678236D35015AB094F)
Complete name                            : F:\Movies\#### 2011 720p BluRay x264 REFiNED\refined-####-720p.mkv
Format                                   : Matroska
Format version                           : Version 2
File size                                : 4.37 GiB
Duration                                 : 1h 40mn
Overall bit rate                         : 6 253 Kbps
Encoded date                             : UTC 2012-01-04 20:37:38
Writing application                      : mkvmerge v4.9.1 ('Ich will') built on Jul 11 2011 23:53:15
Writing library                          : libebml v1.2.1 + libmatroska v1.1.1

Video
ID                                       : 1
Format                                   : AVC
Format/Info                              : Advanced Video Codec
Format profile                           : High@L4.1
Format settings, CABAC                   : Yes
Format settings, ReFrames                : 5 frames
Codec ID                                 : V_MPEG4/ISO/AVC
Duration                                 : 1h 40mn
Bit rate                                 : 4 747 Kbps
Width                                    : 1 280 pixels
Height                                   : 720 pixels
Display aspect ratio                     : 16:9
Frame rate                               : 23.976 fps
Color space                              : YUV
Chroma subsampling                       : 4:2:0
Bit depth                                : 8 bits
Scan type                                : Progressive
Bits/(Pixel*Frame)                       : 0.215
Stream size                              : 3.23 GiB (74%)
Writing library                          : x264 core 120 r2120 0c7dab9
Encoding settings                        : cabac=1 / ref=5 / deblock=1:0:0 / analyse=0x3:0x133 / me=umh / subme=7 / psy=1 / psy_rd=1.00:0.00 / mixed_ref=1 / me_range=16 / chroma_me=1 / trellis=1 / 8x8dct=1 / cqm=0 / deadzone=21,11 / fast_pskip=0 / chroma_qp_offset=-2 / threads=9 / sliced_threads=0 / nr=0 / decimate=1 / interlaced=0 / bluray_compat=0 / constrained_intra=0 / bframes=3 / b_pyramid=2 / b_adapt=1 / b_bias=0 / direct=1 / weightb=1 / open_gop=0 / weightp=2 / keyint=250 / keyint_min=23 / scenecut=40 / intra_refresh=0 / rc_lookahead=40 / rc=2pass / mbtree=1 / bitrate=4747 / ratetol=1.0 / qcomp=0.60 / qpmin=0 / qpmax=69 / qpstep=4 / cplxblur=20.0 / qblur=0.5 / ip_ratio=1.40 / aq=1:1.00
Language                                 : English
Default                                  : Yes
Forced                                   : No

Audio
ID                                       : 2
Format                                   : DTS
Format/Info                              : Digital Theater Systems
Codec ID                                 : A_DTS
Duration                                 : 1h 40mn
Bit rate mode                            : Constant
Bit rate                                 : 1 510 Kbps
Channel(s)                               : 6 channels
Channel positions                        : Front: L C R, Side: L R, LFE
Sampling rate                            : 48.0 KHz
Bit depth                                : 24 bits
Compression mode                         : Lossy
Stream size                              : 1.06 GiB (24%)
Language                                 : English
Default                                  : Yes
Forced                                   : No


This one showed up really small in the upper right and the sound was garbled:
  Code:
General
Complete name                            : F:\Movies\####.avi
Format                                   : AVI
Format/Info                              : Audio Video Interleave
File size                                : 700 MiB
Duration                                 : 1h 41mn
Overall bit rate mode                    : Variable
Overall bit rate                         : 961 Kbps
Writing application                      : Nandub v1.0rc2
Writing library                          : Nandub build 1852/release

Video
ID                                       : 0
Format                                   : MPEG-4 Visual
Format profile                           : Advanced Simple@L5
Format settings, BVOP                    : 2
Format settings, QPel                    : No
Format settings, GMC                     : No warppoints
Format settings, Matrix                  : Default (H.263)
Codec ID                                 : XVID
Codec ID/Hint                            : XviD
Duration                                 : 1h 41mn
Bit rate                                 : 819 Kbps
Width                                    : 640 pixels
Height                                   : 272 pixels
Display aspect ratio                     : 2.35:1
Frame rate                               : 23.976 fps
Color space                              : YUV
Chroma subsampling                       : 4:2:0
Bit depth                                : 8 bits
Scan type                                : Progressive
Compression mode                         : Lossy
Bits/(Pixel*Frame)                       : 0.196
Stream size                              : 597 MiB (85%)
Writing library                          : XviD 1.2.1 (UTC 2008-12-04)

Audio
ID                                       : 1
Format                                   : MPEG Audio
Format version                           : Version 1
Format profile                           : Layer 3
Mode                                     : Joint stereo
Mode extension                           : MS Stereo
Codec ID                                 : 55
Codec ID/Hint                            : MP3
Duration                                 : 1h 41mn
Bit rate mode                            : Variable
Bit rate                                 : 130 Kbps
Channel(s)                               : 2 channels
Sampling rate                            : 48.0 KHz
Compression mode                         : Lossy
Stream size                              : 94.2 MiB (13%)
Alignment                                : Aligned on interleaves
Interleave, duration                     : 24 ms (0.58 video frame)
Interleave, preload duration             : 136 ms
Writing library                          : LAME3.90.
Encoding settings                        : -m j -V 4 -q 2 -lowpass 17.6 --abr 130


This one played beautifully:
  Code:
General
Complete name                            : F:\Movies\###.3.avi
Format                                   : AVI
Format/Info                              : Audio Video Interleave
Format profile                           : OpenDML
File size                                : 3.47 GiB
Duration                                 : 2h 34mn
Overall bit rate                         : 3 214 Kbps
Writing application                      : VirtualDubMod 1.5.10.2 (build 2540/release)
Writing library                          : VirtualDubMod build 2540/release

Video
ID                                       : 0
Format                                   : MPEG-4 Visual
Format profile                           : Advanced Simple@L5
Format settings, BVOP                    : 2
Format settings, QPel                    : No
Format settings, GMC                     : No warppoints
Format settings, Matrix                  : Default (H.263)
Codec ID                                 : XVID
Codec ID/Hint                            : XviD
Duration                                 : 2h 34mn
Bit rate                                 : 2 438 Kbps
Width                                    : 1 280 pixels
Height                                   : 528 pixels
Display aspect ratio                     : 2.40:1
Frame rate                               : 23.976 fps
Color space                              : YUV
Chroma subsampling                       : 4:2:0
Bit depth                                : 8 bits
Scan type                                : Progressive
Compression mode                         : Lossy
Bits/(Pixel*Frame)                       : 0.150
Stream size                              : 2.63 GiB (76%)
Writing library                          : XviD 1.2.1 (UTC 2008-12-04)

Audio
ID                                       : 1
Format                                   : AC-3
Format/Info                              : Audio Coding 3
Mode extension                           : CM (complete main)
Codec ID                                 : 2000
Duration                                 : 2h 34mn
Bit rate mode                            : Constant
Bit rate                                 : 640 Kbps
Channel(s)                               : 6 channels
Channel positions                        : Front: L C R, Side: L R, LFE
Sampling rate                            : 48.0 KHz
Bit depth                                : 16 bits
Compression mode                         : Lossy
Stream size                              : 707 MiB (20%)
Alignment                                : Split accross interleaves


But the other MKV from before still played fine.
<<

Cerberus

User avatar

DLNA master

Posts: 4116

Joined: Sun Jan 02, 2011 5:20 pm

Location: Reading, UK

Post Sun Feb 26, 2012 12:08 am

Re: Need Help: Arris Media Gateway (Moxi)

ok think i got this sorted here hopefully is our last profile for this device :)

Changes

+ added transcoding for high level H264 file ( same as all other devices )
+ Remux AVI and MKV file to mpegts if they have H264 video.
+ Transcoding H264 with DTS audio to mpegts with mpeg2video and ac3
+ Transcoding for unsupported formats to mpeg2video and ac3 ( ie all none H264 files )
+ Transcoding for ogg and 3gp, not many users have these but worth having for completeness

  Code:
<Profile id="22" name="Arris Media Player Final" extendsProfileId="1">
  <HttpHeaders>
       <User-Agent>.*MOXI.*</User-Agent>
  </HttpHeaders>
  <UPnPSearch>
       <FriendlyName>^MOXI.*$</FriendlyName>
  </UPnPSearch>
  <Transcoding>
    <!-- Transcode H264 videos with profile level > 4.1 to MPEGTS with AC3 audio -->
    <Video targetContainer="mpegts" targetACodec="ac3" >
       <Matches container="avi" vCodec="h264" profile="high" levelGreaterThan="4.2" />
       <Matches container="avi" vCodec="h264" profile="main" levelGreaterThan="4.2" />
       <Matches container="mp4" vCodec="h264" profile="high" levelGreaterThan="4.2" />
       <Matches container="mp4" vCodec="h264" profile="main" levelGreaterThan="4.2" />
       <Matches container="matroska" vCodec="h264" profile="high" levelGreaterThan="4.2" />
       <Matches container="matroska" vCodec="h264" profile="main" levelGreaterThan="4.2" />
    </Video>
    <!-- Transcode H264 files with DTS audio to MPEG-TS with AC3 audio -->
    <Video targetContainer="mpegts" targetVCodec="mpeg2video" targetACodec="ac3" >
       <Matches container="avi" vCodec="h264" aCodec="dca" />
       <Matches container="mp4" vCodec="h264" aCodec="dca" />
       <Matches container="matroska" vCodec="h264" aCodec="dca" />
    </Video>
    <!-- Remux H264 files to MPEG-TS with no transcoding -->
    <Video targetContainer="mpegts">
       <Matches container="avi" vCodec="h264" />
       <Matches container="matroska" vCodec="h264" />
    </Video>
    <!-- Remux WTV/FLV files to MPEG-PS with no transcoding -->
    <Video targetContainer="mpeg">
       <Matches container="wtv" />
       <Matches container="flv" />
    </Video>
    <!--  Transcode unsupported codecs into MPEGTS, mpeg2video and AC3 audio -->
    <Video targetContainer="mpegts" targetVCodec="mpeg2video" targetACodec="ac3">           
       <Matches container="avi" />
       <Matches container="ogg" />
       <Matches container="3gp" />
       <Matches container="matroska" />
    </Video>
    <!-- Transcoded unsupported audio into LPCM audio -->
    <Audio targetContainer="lpcm">
       <Matches container="ogg" />
       <Matches container="mp3" />
       <Matches container="flac" />
       <Matches container="adts" />
    </Audio>
  </Transcoding>         
</Profile>
Last edited by Cerberus on Sun Feb 26, 2012 1:48 pm, edited 4 times in total.
Phil Bennett
Beta Tester Group
Wiki | FAQ

Samsung LE40C750 LCD | Samsung BD-C5900 | Sony PS3 | Windows 7 |
HowTo: Provide supported formats of a device HowTo: Record a new ticket on Bitbucket
HowTo: Provide details of a video file that doesn't play HowTo: Turn on detailed logging
<<

Cerberus

User avatar

DLNA master

Posts: 4116

Joined: Sun Jan 02, 2011 5:20 pm

Location: Reading, UK

Post Sun Feb 26, 2012 12:15 am

Re: Need Help: Arris Media Gateway (Moxi)

SPyKER wrote:
This one showed up really small in the upper right and the sound was garbled:
  Code:
General
Complete name                            : F:\Movies\####.avi
Format                                   : AVI
Format/Info                              : Audio Video Interleave
File size                                : 700 MiB
Duration                                 : 1h 41mn
Overall bit rate mode                    : Variable
Overall bit rate                         : 961 Kbps
Writing application                      : Nandub v1.0rc2
Writing library                          : Nandub build 1852/release

Video
ID                                       : 0
Format                                   : MPEG-4 Visual
Format profile                           : Advanced Simple@L5
Format settings, BVOP                    : 2
Format settings, QPel                    : No
Format settings, GMC                     : No warppoints
Format settings, Matrix                  : Default (H.263)
Codec ID                                 : XVID
Codec ID/Hint                            : XviD
Duration                                 : 1h 41mn
Bit rate                                 : 819 Kbps
Width                                    : 640 pixels
Height                                   : 272 pixels
Display aspect ratio                     : 2.35:1
Frame rate                               : 23.976 fps
Color space                              : YUV
Chroma subsampling                       : 4:2:0
Bit depth                                : 8 bits
Scan type                                : Progressive
Compression mode                         : Lossy
Bits/(Pixel*Frame)                       : 0.196
Stream size                              : 597 MiB (85%)
Writing library                          : XviD 1.2.1 (UTC 2008-12-04)

Audio
ID                                       : 1
Format                                   : MPEG Audio
Format version                           : Version 1
Format profile                           : Layer 3
Mode                                     : Joint stereo
Mode extension                           : MS Stereo
Codec ID                                 : 55
Codec ID/Hint                            : MP3
Duration                                 : 1h 41mn
Bit rate mode                            : Variable
Bit rate                                 : 130 Kbps
Channel(s)                               : 2 channels
Sampling rate                            : 48.0 KHz
Compression mode                         : Lossy
Stream size                              : 94.2 MiB (13%)
Alignment                                : Aligned on interleaves
Interleave, duration                     : 24 ms (0.58 video frame)
Interleave, preload duration             : 136 ms
Writing library                          : LAME3.90.
Encoding settings                        : -m j -V 4 -q 2 -lowpass 17.6 --abr 130



broken avi file, nandub is shit try and repair the file with this tool http://wiki.serviio.org/doku.php?id=avirepair
Phil Bennett
Beta Tester Group
Wiki | FAQ

Samsung LE40C750 LCD | Samsung BD-C5900 | Sony PS3 | Windows 7 |
HowTo: Provide supported formats of a device HowTo: Record a new ticket on Bitbucket
HowTo: Provide details of a video file that doesn't play HowTo: Turn on detailed logging
<<

SPyKER

Serviio newbie

Posts: 17

Joined: Tue Jan 03, 2012 10:01 am

Post Sun Feb 26, 2012 6:07 am

Re: Need Help: Arris Media Gateway (Moxi)

Wouldn't start. Found the typo: missing >

  Code:
<!-- Remux WTV/FLV files to MPEG-PS with no transcoding -->
    <Video targetContainer="mpeg"


Gonna go try now.
<<

SPyKER

Serviio newbie

Posts: 17

Joined: Tue Jan 03, 2012 10:01 am

Post Sun Feb 26, 2012 7:51 am

Re: Need Help: Arris Media Gateway (Moxi)

So far so good! Ran about twwo dozen files without any issues to note.

I added one fix, the detections section is back.

Thanks! Now, how to me get this final profile into the public's hands?

  Code:
   <Profile id="22" name="Arris Media Player Final" extendsProfileId="1">
            <Detection>
              <HttpHeaders>
                    <User-Agent>.*MOXI.*</User-Agent>
              </HttpHeaders>
      <UPnPSearch>
                 <FriendlyName>^MOXI.*$</FriendlyName>
              </UPnPSearch>
         </Detection>
      <Transcoding>
         <!-- Transcode H264 videos with profile level > 4.1 to MPEGTS with AC3 audio -->
             <Video targetContainer="mpegts" targetACodec="ac3" >
                   <Matches container="avi" vCodec="h264" profile="high" levelGreaterThan="4.2" />
                   <Matches container="avi" vCodec="h264" profile="main" levelGreaterThan="4.2" />
                   <Matches container="mp4" vCodec="h264" profile="high" levelGreaterThan="4.2" />
                   <Matches container="mp4" vCodec="h264" profile="main" levelGreaterThan="4.2" />
                   <Matches container="matroska" vCodec="h264" profile="high" levelGreaterThan="4.2" />
                   <Matches container="matroska" vCodec="h264" profile="main" levelGreaterThan="4.2" />
             </Video>
             <!-- Transcode H264 files with DTS audio to MPEG-TS with AC3 audio -->
             <Video targetContainer="mpegts" targetVCodec="mpeg2video" targetACodec="ac3" >
                   <Matches container="avi" vCodec="h264" aCodec="dca" />
                   <Matches container="mp4" vCodec="h264" aCodec="dca" />
                   <Matches container="matroska" vCodec="h264" aCodec="dca" />
             </Video>
             <!-- Remux H264 files to MPEG-TS with no transcoding -->
             <Video targetContainer="mpegts">
                   <Matches container="avi" vCodec="h264" />
                   <Matches container="matroska" vCodec="h264" />
             </Video>
             <!-- Remux WTV/FLV files to MPEG-PS with no transcoding -->
             <Video targetContainer="mpeg">
                   <Matches container="wtv" />
                   <Matches container="flv" />
             </Video>
             <!--  Transcode unsupported codecs into MPEGTS, mpeg2video and AC3 audio -->
             <Video targetContainer="mpegts" targetVCodec="mpeg2video" targetACodec="ac3">           
                   <Matches container="avi" />
                   <Matches container="ogg" />
                   <Matches container="3gp" />
                   <Matches container="matroska" />
             </Video>
             <!-- Transcoded unsupported audio into LPCM audio -->
             <Audio targetContainer="lpcm">
                   <Matches container="ogg" />
                   <Matches container="mp3" />
                   <Matches container="flac" />
                   <Matches container="adts" />
             </Audio>
        </Transcoding>         
   </Profile>
<<

Cerberus

User avatar

DLNA master

Posts: 4116

Joined: Sun Jan 02, 2011 5:20 pm

Location: Reading, UK

Post Sun Feb 26, 2012 1:51 pm

Re: Need Help: Arris Media Gateway (Moxi)

Thats fine got late last night and started making mistakes, so went to bed. i have corrected them in my profile above, also yours has a slight difference to mine, try this profile. (dca is now only remuxed to ac3 without affecting video)

  Code:
<Profile id="22" name="Arris Media Player Final Fixed" extendsProfileId="1">
  <Detection>
     <HttpHeaders>
         <User-Agent>.*MOXI.*</User-Agent>
     </HttpHeaders>
    <UPnPSearch>
       <FriendlyName>^MOXI.*$</FriendlyName>
    </UPnPSearch>
  </Detection>
  <Transcoding>
    <!-- Transcode H264 videos with profile level > 4.1 to MPEGTS with AC3 audio -->
    <Video targetContainer="mpegts" targetACodec="ac3" >
       <Matches container="avi" vCodec="h264" profile="high" levelGreaterThan="4.2" />
       <Matches container="avi" vCodec="h264" profile="main" levelGreaterThan="4.2" />
       <Matches container="mp4" vCodec="h264" profile="high" levelGreaterThan="4.2" />
       <Matches container="mp4" vCodec="h264" profile="main" levelGreaterThan="4.2" />
       <Matches container="matroska" vCodec="h264" profile="high" levelGreaterThan="4.2" />
       <Matches container="matroska" vCodec="h264" profile="main" levelGreaterThan="4.2" />
    </Video>
    <!-- Transcode H264 files with DTS audio to MPEG-TS with AC3 audio -->
    <Video targetContainer="mpegts" targetVCodec="mpeg2video" targetACodec="ac3" >
       <Matches container="avi" vCodec="h264" aCodec="dca" />
       <Matches container="mp4" vCodec="h264" aCodec="dca" />
       <Matches container="matroska" vCodec="h264" aCodec="dca" />
    </Video>
    <!-- Remux H264 files to MPEG-TS with no transcoding -->
    <Video targetContainer="mpegts">
       <Matches container="avi" vCodec="h264" />
       <Matches container="matroska" vCodec="h264" />
    </Video>
    <!-- Remux WTV/FLV files to MPEG-PS with no transcoding -->
    <Video targetContainer="mpeg">
       <Matches container="wtv" />
       <Matches container="flv" />
    </Video>
    <!--  Transcode unsupported codecs into MPEGTS, mpeg2video and AC3 audio -->
    <Video targetContainer="mpegts" targetVCodec="mpeg2video" targetACodec="ac3">           
       <Matches container="avi" />
       <Matches container="ogg" />
       <Matches container="3gp" />
       <Matches container="matroska" />
    </Video>
    <!-- Transcoded unsupported audio into LPCM audio -->
    <Audio targetContainer="lpcm">
       <Matches container="ogg" />
       <Matches container="mp3" />
       <Matches container="flac" />
       <Matches container="adts" />
    </Audio>
  </Transcoding>         
</Profile>


SPyKER wrote:Thanks! Now, how to me get this final profile into the public's hands?


how do you mean? you can hand out that profile to anyone to try and i will request it to be added to next release of serviio, if this last test works as i espect it will.
Last edited by Cerberus on Mon Feb 27, 2012 11:05 am, edited 1 time in total.
Phil Bennett
Beta Tester Group
Wiki | FAQ

Samsung LE40C750 LCD | Samsung BD-C5900 | Sony PS3 | Windows 7 |
HowTo: Provide supported formats of a device HowTo: Record a new ticket on Bitbucket
HowTo: Provide details of a video file that doesn't play HowTo: Turn on detailed logging
<<

SPyKER

Serviio newbie

Posts: 17

Joined: Tue Jan 03, 2012 10:01 am

Post Mon Feb 27, 2012 12:22 am

Re: Need Help: Arris Media Gateway (Moxi)

Not quite there.

I again can't get Serviio to start. I tried to go back to the previous code, but you've updated it, so I'm trying to debug it.



Update: added the detection back and it loads.
<<

Cerberus

User avatar

DLNA master

Posts: 4116

Joined: Sun Jan 02, 2011 5:20 pm

Location: Reading, UK

Post Mon Feb 27, 2012 11:07 am

Re: Need Help: Arris Media Gateway (Moxi)

SPyKER wrote:Not quite there.

I again can't get Serviio to start. I tried to go back to the previous code, but you've updated it, so I'm trying to debug it.



Update: added the detection back and it loads.


rofl yer maybad, ok so with that final one we have everything working once i remember to add the detection flags :oops: so h264 with dts now work just audio transcoded and not video ???
Phil Bennett
Beta Tester Group
Wiki | FAQ

Samsung LE40C750 LCD | Samsung BD-C5900 | Sony PS3 | Windows 7 |
HowTo: Provide supported formats of a device HowTo: Record a new ticket on Bitbucket
HowTo: Provide details of a video file that doesn't play HowTo: Turn on detailed logging
<<

SPyKER

Serviio newbie

Posts: 17

Joined: Tue Jan 03, 2012 10:01 am

Post Mon Feb 27, 2012 1:02 pm

Re: Need Help: Arris Media Gateway (Moxi)

so h264 with dts now work just audio transcoded and not video ???


Yes. The one which was showing video and no audio now has both. I have yet to find a format which is not working now.
<<

Cerberus

User avatar

DLNA master

Posts: 4116

Joined: Sun Jan 02, 2011 5:20 pm

Location: Reading, UK

Post Mon Feb 27, 2012 1:37 pm

Re: Need Help: Arris Media Gateway (Moxi)

SPyKER wrote:
so h264 with dts now work just audio transcoded and not video ???


Yes. The one which was showing video and no audio now has both. I have yet to find a format which is not working now.


awesome, other than my lack of sleep slowing us down that went very smoothly, i will pass the profile on to ZIP for inclution into the next servio release. :)

MODS: can we close this down now please. :)
Phil Bennett
Beta Tester Group
Wiki | FAQ

Samsung LE40C750 LCD | Samsung BD-C5900 | Sony PS3 | Windows 7 |
HowTo: Provide supported formats of a device HowTo: Record a new ticket on Bitbucket
HowTo: Provide details of a video file that doesn't play HowTo: Turn on detailed logging
<<

zip

User avatar

Serviio developer / Site Admin

Posts: 16356

Joined: Sat Oct 24, 2009 12:24 pm

Location: London, UK

Post Mon Feb 27, 2012 5:18 pm

Re: Need Help: Arris Media Gateway (Moxi)

you have flv transcoding to mpegps, which won't work.
<<

lesmikesell

Serviio newbie

Posts: 17

Joined: Mon Feb 14, 2011 1:58 am

Post Sat Jun 01, 2013 6:59 pm

Re: Need Help: Arris Media Gateway (Moxi)

Is this device the same as the 'media player' box that comes with WOW cable's whole-home DVR (ultra tv)?

Also, what would be the best format to rip dvd/blu-rays for it so they would play without transcoding and thus permit fast-forward and rewind?
<<

PhantomNomad

Serviio newbie

Posts: 1

Joined: Sat Dec 03, 2016 4:07 am

Post Sat Dec 03, 2016 4:12 am

Re: Need Help: Arris Media Gateway (Moxi)

I've tried following this thread but I just can't seem to get my Eastlink Arris to work with .mkv files. The debug logs shows that Serviio knows its a MKV file. It also shows that it knows I'm running a Moxi client. But when I try to play the mkv file it doesn't even try to transcode it. The Arris front end just shows a "!" over the movie poster. I'm using the last profile shown on Page 2 of this thread. Other then turning on debug I haven't made any other changes. I checked in the console for serviio and it does show that transcoding is allowed. Does any one have some hints?

Thanks
Previous

Return to Transcoding

Who is online

Users browsing this forum: No registered users and 3 guests

Powered by phpBB © 2000, 2002, 2005, 2007 phpBB Group.
Designed by ST Software for PTF.