FAQ  •  Register  •  Login

ue40c6000

<<

massimo

Serviio newbie

Posts: 4

Joined: Tue Jan 18, 2011 2:38 am

Post Tue Jan 18, 2011 3:10 pm

ue40c6000

i 'm having trouble to view only some mkv files through serviio. sound is missing. tv set however is capable of reading natively through usb without problems.
here s what ffmpeg gives: (is it possible to make serviio transcode for samsung tv c series? because it doesn't but needs to)


F:\Program Files (x86)\Serviio\lib>ffmpeg.exe -i "E:\MEDIA PLAYER\FILMS VF HD\GL
ADIATOR 1080.mkv"
FFmpeg version SVN-r23012, Copyright (c) 2000-2010 the FFmpeg developers
built on May 3 2010 19:05:24 with gcc 3.4.5 (mingw-vista special r3)
configuration: --enable-static --disable-shared --disable-ffplay --disable-ffs
erver --enable-memalign-hack --enable-libmp3lame --enable-w32threads --extra-ldf
lags=-L/static/lib --extra-cflags=-I/static/include
libavutil 50.15. 0 / 50.15. 0
libavcodec 52.66. 0 / 52.66. 0
libavformat 52.62. 0 / 52.62. 0
libavdevice 52. 2. 0 / 52. 2. 0
libswscale 0.10. 0 / 0.10. 0
[matroska @ 012fbb70]MAX_READ_SIZE:5000000 reached
[matroska @ 012fbb70]Estimating duration from bitrate, this may be inaccurate

Seems stream 0 codec frame rate differs from container frame rate: 47.95 (48000/
1001) -> 23.98 (48000/2002)
Input #0, matroska, from 'E:\MEDIA PLAYER\FILMS VF HD\GLADIATOR 1080.mkv':
Duration: 02:50:56.91, start: 0.000000, bitrate: N/A
Stream #0.0(fre): Video: h264, yuv420p, 1920x816, PAR 1:1 DAR 40:17, 23.98 t
br, 1k tbn, 47.95 tbc
Stream #0.1(fre): Audio: dca, 48000 Hz, 6 channels, s16
Stream #0.2(eng): Audio: dca, 48000 Hz, 6 channels, s16
Stream #0.3(fre): Subtitle: 0x0000
Metadata:
title : Forced
Stream #0.4(fre): Subtitle: 0x0000
Stream #0.5(eng): Subtitle: 0x0000
At least one output file must be specified

F:\Program Files (x86)\Serviio\lib>
<<

zip

User avatar

Serviio developer / Site Admin

Posts: 17090

Joined: Sat Oct 24, 2009 12:24 pm

Location: London, UK

Post Tue Jan 18, 2011 6:14 pm

Re: ue40c6000

it's a DTS audio, which the C series TVs should be able to decode. Can someone confirm whether they can play DTS audio on the C series Sammy?
<<

Cerberus

User avatar

DLNA master

Posts: 4116

Joined: Sun Jan 02, 2011 5:20 pm

Location: Reading, UK

Post Tue Jan 18, 2011 6:54 pm

Re: ue40c6000

i cant play any MKv file at all atm with RC1
Phil Bennett
Beta Tester Group
Wiki | FAQ

Samsung LE40C750 LCD | Samsung BD-C5900 | Sony PS3 | Windows 7 |
HowTo: Provide supported formats of a device HowTo: Record a new ticket on Bitbucket
HowTo: Provide details of a video file that doesn't play HowTo: Turn on detailed logging

Return to Samsung

Who is online

Users browsing this forum: No registered users and 3 guests

Powered by phpBB © 2000, 2002, 2005, 2007 phpBB Group.
Designed by ST Software for PTF.