FAQ  •  Register  •  Login

Sony BluRay Players (BDP-S370)

<<

Illico

User avatar

DLNA master

Posts: 4645

Joined: Fri Jul 23, 2010 8:08 am

Location: France

Post Tue Jan 25, 2011 7:27 pm

Re: [Profile] Sony BluRay Players (BDP-S370)

First post of this topic Updated with 0.5 Sony BDP profiles.
Illico
Sony 2010 KDL-46EX501 | BDP-S373 | SMP-N100 | Windows 8-i7 | Network DD HD-CE1.5TLU2 | Livebox2-UHD86 | ServiiDroid | ServiiGo | BubbleUPnP
Serviio beta tester - Moderator
<<

patters

User avatar

DLNA master

Posts: 1273

Joined: Sat Oct 09, 2010 3:51 pm

Location: London, UK

Post Tue Jan 25, 2011 7:37 pm

Re: [Profile] Sony BluRay Players (BDP-S370)

You've changed the formatting there - I'm pretty sure Serviio will reject the file if comment tags span multiple lines.
LG OLED55B8PLA | PS4 Pro | Xbox One S | Synology DS214play
Serviio 2.0 package for Synology NAS - with limited hardware transcoding support!
<<

zip

User avatar

Serviio developer / Site Admin

Posts: 17079

Joined: Sat Oct 24, 2009 12:24 pm

Location: London, UK

Post Tue Jan 25, 2011 8:28 pm

Re: [Profile] Sony BluRay Players (BDP-S370)

patters wrote:You've changed the formatting there - I'm pretty sure Serviio will reject the file if comment tags span multiple lines.

I hope not ;-)
<<

patters

User avatar

DLNA master

Posts: 1273

Joined: Sat Oct 09, 2010 3:51 pm

Location: London, UK

Post Wed Jan 26, 2011 1:15 am

Re: [Profile] Sony BluRay Players (BDP-S370)

zip wrote:
patters wrote:You've changed the formatting there - I'm pretty sure Serviio will reject the file if comment tags span multiple lines.

I hope not ;-)


Ah, maybe it's only if you try to comment out sections that contain other tags.
LG OLED55B8PLA | PS4 Pro | Xbox One S | Synology DS214play
Serviio 2.0 package for Synology NAS - with limited hardware transcoding support!
<<

Willems

Serviio newbie

Posts: 17

Joined: Sun Jul 25, 2010 5:36 am

Post Wed Jan 26, 2011 7:10 am

Re: [Profile] Sony BluRay Players (BDP-S370)

Illico wrote:
Willems wrote:I am currently using this profile and encountered a problem with a collection of files. I have tried everything I could come up with.
The actual problem is that when playing the specific MP4 files (HDlite type). The sound plays intermittently.

  Code:
V:\Movies (HDL)\The Sorcerer's Apprentice (2010) (HDL)>ffmpeg.exe -i "The Sorcerer's Apprentice.mp4"
FFmpeg version SVN-r23012, Copyright (c) 2000-2010 the FFmpeg developers
Input #0, mov,mp4,m4a,3gp,3g2,mj2, from 'The Sorcerer's Apprentice.mp4':
  Duration: 01:49:03.01, start: 0.000000, bitrate: 2953 kb/s
    Stream #0.0(und): Video: h264, yuv420p, 1280x528 [PAR 1:1 DAR 80:33], 2547 kb/s, 23.98 fps, 23.98 tbr, 66893 tbn, 47.95 tbc
    Stream #0.1(eng): Audio: aac, 48000 Hz, 5.1, s16, 402 kb/s


If there is anything I can try to make these files play without a hitch it would be great. (Video plays perfectly using the latest profile in this Topic)

This mp4 file must be transcoded to mpegts with ac3 audio
<Video targetContainer="mpegts" targetACodec="ac3">
<Matches container="mp4" vCodec="h264" />
</Video>
Audio stuttering, is probably due to audio bitrate issues: http://bitbucket.org/xnejp03/serviio/is ... bitrate-to
We can try some test to confirm :
Could you provide a detailed logging file when you start to transcode this mp4 file?



Problem solved in Serviio Version 0.5!!! :-) I tried playing the same file again, using the BDP-S470 and it works like a charm!
<<

patters

User avatar

DLNA master

Posts: 1273

Joined: Sat Oct 09, 2010 3:51 pm

Location: London, UK

Post Wed Jan 26, 2011 9:50 am

Re: [Profile] Sony BluRay Players (BDP-S370)

There is an issue with FFmpeg failing to transcode multi-channel aac audio down to two channels. The Sony BDP profile for 0.4 was transcoding audio to ac3 for mp4, since I didn't think you could specify a target container without at least one codec. You can get around this by selecting Audio channels: keep original on the Transcoding tab in Serviio console. However, I modified the Sony BDP profile for 0.5 to keep audio transcoding to a minimum precisely to avoid stuff like this.
LG OLED55B8PLA | PS4 Pro | Xbox One S | Synology DS214play
Serviio 2.0 package for Synology NAS - with limited hardware transcoding support!
<<

kosecki

Serviio newbie

Posts: 1

Joined: Sat Jan 29, 2011 9:16 am

Post Fri Feb 04, 2011 7:01 pm

Re: [Profile] Sony BluRay Players (BDP-S370)

FYI: I have some non-standard mkv files with mp3 audio track (remuxed to work with samsung b550 tv). In order to have sound in them on sony bdp-s370 I've to add this line in profiles.xml
  Code:
<Video targetContainer="mpegts" targetACodec="ac3">
            <!-- Sony BDP requests all formats except mpeg-ps and mpeg-ts in 32KB chunks which works badly over wifi -->
            <!--
               remove all matroska transcoding matches if you stream over a wired connection and want mkv subtitle support and alt audio
               tracks
            -->
            <Matches container="matroska" aCodec="dca" />
            <Matches container="matroska" aCodec="mp3" /> <!-- for mkv wtih mp3 audio -->
</Video>
<<

fixitchris

Streaming enthusiast

Posts: 23

Joined: Fri Dec 17, 2010 1:44 pm

Post Wed Feb 16, 2011 4:56 am

Re: [Profile] Sony BluRay Players (BDP-S370)

Q1: What part of .5 USA profile do I need to modify so that MKV is not transcoded? MKV worked fine with the .42 profile.

Q2: I turned off transcoding and this file is not supported. How can I play w/o transcoding?
  Code:
Input #0, avi, from '\conviction.avi':
  Metadata:
    encoder         : VirtualDubMod 1.5.10.2 (build 2540/release)
  Duration: 01:47:05.01, start: 0.000000, bitrate: 918 kb/s
    Stream #0.0: Video: mpeg4, yuv420p, 616x320 [PAR 1:1 DAR 77:40], 23.98 tbr,
23.98 tbn, 23.98 tbc
    Stream #0.1: Audio: mp3, 48000 Hz, 2 channels, s16, 129 kb/s


Thanks
<<

Illico

User avatar

DLNA master

Posts: 4645

Joined: Fri Jul 23, 2010 8:08 am

Location: France

Post Wed Feb 16, 2011 7:53 am

Re: [Profile] Sony BluRay Players (BDP-S370)

fixitchris wrote:Q1: What part of .5 USA profile do I need to modify so that MKV is not transcoded? MKV worked fine with the .42 profile.

Remove lines with mkv container matches
Try this
  Code:
<Profile id="11" name="Sony BD Player (US)" extendsProfileId="1">
      <MediaFormatProfiles>
         <MediaFormatProfile mime-type="audio/mpeg" name="MP3">WMA_BASE</MediaFormatProfile>
         <MediaFormatProfile mime-type="audio/mpeg" name="MP3">WMA_FULL</MediaFormatProfile>
         <MediaFormatProfile mime-type="video/mpeg" name="MPEG_PS_NTSC">MATROSKA</MediaFormatProfile>
         <MediaFormatProfile mime-type="video/mpeg" name="MPEG_PS_NTSC">AVI</MediaFormatProfile>
         <MediaFormatProfile mime-type="video/mpeg" name="MPEG_PS_NTSC">AVC_MP4_MP_SD_AAC_MULT5</MediaFormatProfile>
         <MediaFormatProfile mime-type="video/mpeg" name="MPEG_PS_NTSC">AVC_MP4_MP_SD_MPEG1_L3</MediaFormatProfile>
         <MediaFormatProfile mime-type="video/mpeg" name="MPEG_PS_NTSC">AVC_MP4_MP_SD_AC3</MediaFormatProfile>
         <MediaFormatProfile mime-type="video/mpeg" name="MPEG_PS_NTSC">AVC_MP4_MP_HD_720p_AAC</MediaFormatProfile>
         <MediaFormatProfile mime-type="video/mpeg" name="MPEG_PS_NTSC">AVC_MP4_MP_HD_1080i_AAC</MediaFormatProfile>
         <MediaFormatProfile mime-type="video/mpeg" name="MPEG_PS_NTSC">AVC_MP4_HP_HD_AAC</MediaFormatProfile>
         <MediaFormatProfile mime-type="video/mpeg" name="MPEG_PS_NTSC">AVC_MP4_LPCM</MediaFormatProfile>
         <MediaFormatProfile mime-type="video/mpeg" name="MPEG_PS_NTSC">MPEG4_P2_MP4_ASP_AAC</MediaFormatProfile>
         <MediaFormatProfile mime-type="video/mpeg" name="MPEG_PS_NTSC">MPEG4_P2_MP4_SP_L6_AAC</MediaFormatProfile>
         <MediaFormatProfile mime-type="video/mpeg" name="MPEG_PS_NTSC">MPEG4_P2_MP4_NDSD</MediaFormatProfile>
         <MediaFormatProfile mime-type="video/vnd.dlna.mpeg-tts" name="MPEG_TS_SD_NA">AVC_TS_MP_SD_AAC_MULT5</MediaFormatProfile>
         <MediaFormatProfile mime-type="video/vnd.dlna.mpeg-tts" name="MPEG_TS_SD_NA">AVC_TS_MP_SD_AAC_MULT5_T</MediaFormatProfile>
         <MediaFormatProfile mime-type="video/vnd.dlna.mpeg-tts" name="MPEG_TS_SD_NA">AVC_TS_MP_SD_AAC_MULT5_ISO</MediaFormatProfile>
         <MediaFormatProfile mime-type="video/vnd.dlna.mpeg-tts" name="MPEG_TS_SD_NA">AVC_TS_MP_SD_MPEG1_L3</MediaFormatProfile>
         <MediaFormatProfile mime-type="video/vnd.dlna.mpeg-tts" name="MPEG_TS_SD_NA">AVC_TS_MP_SD_MPEG1_L3_T</MediaFormatProfile>
         <MediaFormatProfile mime-type="video/vnd.dlna.mpeg-tts" name="MPEG_TS_SD_NA">AVC_TS_MP_SD_MPEG1_L3_ISO</MediaFormatProfile>
         <MediaFormatProfile mime-type="video/vnd.dlna.mpeg-tts" name="MPEG_TS_SD_NA">AVC_TS_MP_SD_AAC_MULT5</MediaFormatProfile>
         <MediaFormatProfile mime-type="video/vnd.dlna.mpeg-tts" name="MPEG_TS_SD_NA">AVC_TS_MP_SD_AAC_MULT5_T</MediaFormatProfile>
         <MediaFormatProfile mime-type="video/vnd.dlna.mpeg-tts" name="MPEG_TS_SD_NA">AVC_TS_MP_SD_AAC_MULT5_ISO</MediaFormatProfile>
         <MediaFormatProfile mime-type="video/vnd.dlna.mpeg-tts" name="MPEG_TS_SD_NA">AVC_TS_MP_SD_MPEG1_L3</MediaFormatProfile>
         <MediaFormatProfile mime-type="video/vnd.dlna.mpeg-tts" name="MPEG_TS_SD_NA">AVC_TS_MP_SD_MPEG1_L3_T</MediaFormatProfile>
         <MediaFormatProfile mime-type="video/vnd.dlna.mpeg-tts" name="MPEG_TS_SD_NA">AVC_TS_MP_SD_MPEG1_L3_ISO</MediaFormatProfile>
         <MediaFormatProfile mime-type="video/vnd.dlna.mpeg-tts" name="MPEG_TS_SD_NA">AVC_TS_MP_SD_AC3</MediaFormatProfile>
         <MediaFormatProfile mime-type="video/vnd.dlna.mpeg-tts" name="MPEG_TS_SD_NA">AVC_TS_MP_SD_AC3_T</MediaFormatProfile>
         <MediaFormatProfile mime-type="video/vnd.dlna.mpeg-tts" name="MPEG_TS_SD_NA">AVC_TS_MP_SD_AC3_ISO</MediaFormatProfile>
         <MediaFormatProfile mime-type="video/vnd.dlna.mpeg-tts" name="MPEG_TS_SD_NA">AVC_TS_MP_HD_AAC_MULT5</MediaFormatProfile>
         <MediaFormatProfile mime-type="video/vnd.dlna.mpeg-tts" name="MPEG_TS_SD_NA">AVC_TS_MP_HD_AAC_MULT5_T</MediaFormatProfile>
         <MediaFormatProfile mime-type="video/vnd.dlna.mpeg-tts" name="MPEG_TS_SD_NA">AVC_TS_MP_HD_AAC_MULT5_ISO</MediaFormatProfile>
         <MediaFormatProfile mime-type="video/vnd.dlna.mpeg-tts" name="MPEG_TS_SD_NA">AVC_TS_MP_HD_MPEG1_L3</MediaFormatProfile>
         <MediaFormatProfile mime-type="video/vnd.dlna.mpeg-tts" name="MPEG_TS_SD_NA">AVC_TS_MP_HD_MPEG1_L3_T</MediaFormatProfile>
         <MediaFormatProfile mime-type="video/vnd.dlna.mpeg-tts" name="MPEG_TS_SD_NA">AVC_TS_MP_HD_MPEG1_L3_ISO</MediaFormatProfile>
         <MediaFormatProfile mime-type="video/vnd.dlna.mpeg-tts" name="MPEG_TS_SD_NA">AVC_TS_MP_HD_AC3</MediaFormatProfile>
         <MediaFormatProfile mime-type="video/vnd.dlna.mpeg-tts" name="MPEG_TS_SD_NA">AVC_TS_MP_HD_AC3_T</MediaFormatProfile>
         <MediaFormatProfile mime-type="video/vnd.dlna.mpeg-tts" name="MPEG_TS_SD_NA">AVC_TS_MP_HD_AC3_ISO</MediaFormatProfile>
         <MediaFormatProfile mime-type="video/vnd.dlna.mpeg-tts" name="MPEG_TS_SD_NA">AVC_TS_HD_DTS_T</MediaFormatProfile>
         <MediaFormatProfile mime-type="video/vnd.dlna.mpeg-tts" name="MPEG_TS_SD_NA">AVC_TS_HD_DTS_ISO</MediaFormatProfile>
         <MediaFormatProfile mime-type="video/vnd.dlna.mpeg-tts" name="MPEG_TS_SD_NA">AVC_TS_HD_50_LPCM_T</MediaFormatProfile>
         <MediaFormatProfile mime-type="video/vnd.dlna.mpeg-tts" name="MPEG_TS_SD_NA">AVC_TS_HP_SD_MPEG1_L2_ISO</MediaFormatProfile>
         <MediaFormatProfile mime-type="video/vnd.dlna.mpeg-tts" name="MPEG_TS_SD_NA">AVC_TS_HP_SD_MPEG1_L2_T</MediaFormatProfile>
         <MediaFormatProfile mime-type="video/vnd.dlna.mpeg-tts" name="MPEG_TS_SD_NA">AVC_TS_HP_HD_MPEG1_L2_ISO</MediaFormatProfile>
         <MediaFormatProfile mime-type="video/vnd.dlna.mpeg-tts" name="MPEG_TS_SD_NA">AVC_TS_HP_HD_MPEG1_L2_T</MediaFormatProfile>
         <MediaFormatProfile mime-type="video/vnd.dlna.mpeg-tts" name="MPEG_TS_SD_NA">MPEG4_P2_TS_ASP_AAC</MediaFormatProfile>
         <MediaFormatProfile mime-type="video/vnd.dlna.mpeg-tts" name="MPEG_TS_SD_NA">MPEG4_P2_TS_ASP_AAC_T</MediaFormatProfile>
         <MediaFormatProfile mime-type="video/vnd.dlna.mpeg-tts" name="MPEG_TS_SD_NA">MPEG4_P2_TS_ASP_AAC_ISO</MediaFormatProfile>
         <MediaFormatProfile mime-type="video/vnd.dlna.mpeg-tts" name="MPEG_TS_SD_NA">MPEG4_P2_TS_ASP_AC3</MediaFormatProfile>
         <MediaFormatProfile mime-type="video/vnd.dlna.mpeg-tts" name="MPEG_TS_SD_NA">MPEG4_P2_TS_ASP_AC3_T</MediaFormatProfile>
         <MediaFormatProfile mime-type="video/vnd.dlna.mpeg-tts" name="MPEG_TS_SD_NA">MPEG4_P2_TS_ASP_AC3_ISO</MediaFormatProfile>
         <MediaFormatProfile mime-type="video/vnd.dlna.mpeg-tts" name="MPEG_TS_SD_NA">MPEG4_P2_TS_ASP_MPEG1_L3</MediaFormatProfile>
         <MediaFormatProfile mime-type="video/vnd.dlna.mpeg-tts" name="MPEG_TS_SD_NA">MPEG4_P2_TS_ASP_MPEG1_L3_T</MediaFormatProfile>
         <MediaFormatProfile mime-type="video/vnd.dlna.mpeg-tts" name="MPEG_TS_SD_NA">MPEG4_P2_TS_ASP_MPEG1_L3_ISO</MediaFormatProfile>
         <MediaFormatProfile mime-type="video/vnd.dlna.mpeg-tts" name="MPEG_TS_SD_NA">VC1_TS_AP_L1_AC3_ISO</MediaFormatProfile>
         <MediaFormatProfile mime-type="video/vnd.dlna.mpeg-tts" name="MPEG_TS_SD_NA">VC1_TS_AP_L2_AC3_ISO</MediaFormatProfile>
      </MediaFormatProfiles>
      <Transcoding>
         <Video targetContainer="mpegts">
            <Matches container="mp4" vCodec="h264" />
         </Video>
         <Video targetContainer="mpegts" targetVCodec="mpeg2video" targetACodec="ac3">
            <Matches container="asf" />
            <Matches container="flv" />
            <Matches container="avi" vCodec="mjpeg" />
            <Matches container="mp4" vCodec="mjpeg" />
         </Video>
      </Transcoding>
      <AutomaticImageRotation>true</AutomaticImageRotation>
      <LimitImageResolution>false</LimitImageResolution>
   </Profile>


fixitchris wrote:Q2: I turned off transcoding and this file is not supported. How can I play w/o transcoding?
  Code:
Input #0, avi, from '\conviction.avi':
  Duration: 01:47:05.01, start: 0.000000, bitrate: 918 kb/s
    Stream #0.0: Video: mpeg4, yuv420p, 616x320 [PAR 1:1 DAR 77:40], 23.98 tbr, 23.98 tbn, 23.98 tbc
    Stream #0.1: Audio: mp3, 48000 Hz, 2 channels, s16, 129 kb/s


Could you check the detailed logging file, when "conviction.avi" file will be stream? which MediaFormatProfile serviio use?
Illico
Sony 2010 KDL-46EX501 | BDP-S373 | SMP-N100 | Windows 8-i7 | Network DD HD-CE1.5TLU2 | Livebox2-UHD86 | ServiiDroid | ServiiGo | BubbleUPnP
Serviio beta tester - Moderator
<<

fixitchris

Streaming enthusiast

Posts: 23

Joined: Fri Dec 17, 2010 1:44 pm

Post Thu Feb 17, 2011 12:33 am

Re: [Profile] Sony BluRay Players (BDP-S370)

Q1 Removing the MKV containers fixed MKV playing. thanks. Is the only way to play MP4 is to transcode?

Q2 Here is the log. It is using the correct profile. My profiles xml only has profile 1 and 11 , I deleted all others.

  Code:
2011-02-16 18:30:09,485 DEBUG [ResourceTransportRequestHandler] HEAD /resource/4942/MEDIA_ITEM/AVI HTTP/1.1, headers = [Host: 192.168.1.2:8895,Accept: */*,getcontentFeatures.dlna.org: 1,X-AV-Physical-Unit-Info: pa="Blu-ray Disc Player",X-AV-Client-Info: av=5.0; cn="Sony Corporation"; mn="Blu-ray Disc Player"; mv="2.0"]]
2011-02-16 18:30:09,485 DEBUG [RendererDAOImpl] Reading a Renderer with ip address 192.168.1.71
2011-02-16 18:30:09,485 DEBUG [ResourceTransportRequestHandler] Resource request accepted. Using client 'IPAddress=/192.168.1.71, Profile=Sony BD Player (US)'
2011-02-16 18:30:09,485 DEBUG [ResourceTransportRequestHandler] Request for resource 4942 and type 'MEDIA_ITEM' received
2011-02-16 18:30:09,485 DEBUG [MediaItemDAOImpl] Reading a MediaItem (id = 4942)
2011-02-16 18:30:09,485 DEBUG [VideoDAOImpl] Reading a Video (id = 4942)
2011-02-16 18:30:09,485 DEBUG [VideoDeliveryEngine] Retrieving resource information for item 4942, format AVI and profile Sony BD Player (US)
2011-02-16 18:30:09,485 DEBUG [ResourceTransportRequestHandler] Sending HEAD response back
2011-02-16 18:30:09,485 DEBUG [ResourceTransportRequestHandler] HTTP/1.1 200 OK, headers = [[Content-Type: video/mpeg,Content-Length: 737800192,Date: Thu, 17 Feb 2011 00:30:09 GMT,Server: Windows 2003, UPnP/1.0 DLNADOC/1.50, Serviio/0.5,Cache-control: no-cache,contentFeatures.dlna.org: DLNA.ORG_PN=MPEG_PS_NTSC;DLNA.ORG_OP=01;DLNA.ORG_CI=0;DLNA.ORG_FLAGS=01500000000000000000000000000000,transferMode.dlna.org: Streaming]]
2011-02-16 18:30:09,485 DEBUG [ResourceTransportRequestHandler] GET /resource/4942/MEDIA_ITEM/AVI HTTP/1.1, headers = [Host: 192.168.1.2:8895,Accept: */*,Range: bytes=0-1023,getcontentFeatures.dlna.org: 1,Pragma: getIfoFileURI.dlna.org,transferMode.dlna.org: Streaming,X-AV-Physical-Unit-Info: pa="Blu-ray Disc Player",X-AV-Client-Info: av=5.0; cn="Sony Corporation"; mn="Blu-ray Disc Player"; mv="2.0"]]
2011-02-16 18:30:09,485 DEBUG [RendererDAOImpl] Reading a Renderer with ip address 192.168.1.71
2011-02-16 18:30:09,485 DEBUG [ResourceTransportRequestHandler] Resource request accepted. Using client 'IPAddress=/192.168.1.71, Profile=Sony BD Player (US)'
2011-02-16 18:30:09,485 DEBUG [ResourceTransportRequestHandler] Request for resource 4942 and type 'MEDIA_ITEM' received
2011-02-16 18:30:09,485 DEBUG [MediaItemDAOImpl] Reading a MediaItem (id = 4942)
2011-02-16 18:30:09,485 DEBUG [VideoDAOImpl] Reading a Video (id = 4942)
2011-02-16 18:30:09,485 DEBUG [VideoDeliveryEngine] Delivering item '4942' for client 'IPAddress=/192.168.1.71, Profile=Sony BD Player (US)'
2011-02-16 18:30:09,485 DEBUG [VideoDeliveryEngine] Delivering file 'Conviction.avi' in native format
2011-02-16 18:30:09,485 DEBUG [MediaItemDAOImpl] Getting file of media item 4942
2011-02-16 18:30:09,517 DEBUG [MediaItemDAOImpl] Marking MediaItem (id = 4942) as read
2011-02-16 18:30:09,532 DEBUG [LocalContentCacheDecorator] Cleared cache (local_resetafterplay)
2011-02-16 18:30:09,532 DEBUG [ResourceTransportRequestHandler] Creating stream entity with length: 1024
2011-02-16 18:30:09,532 DEBUG [ResourceTransportRequestHandler] Sending file back
2011-02-16 18:30:09,532 DEBUG [ResourceTransportRequestHandler] HTTP/1.1 206 Partial Content, headers = [[Content-Type: video/mpeg,Content-Range: bytes 0-1023/737800192,Content-Length: 1024,Date: Thu, 17 Feb 2011 00:30:09 GMT,Server: Windows 2003, UPnP/1.0 DLNADOC/1.50, Serviio/0.5,Cache-control: no-cache,contentFeatures.dlna.org: DLNA.ORG_PN=MPEG_PS_NTSC;DLNA.ORG_OP=01;DLNA.ORG_CI=0;DLNA.ORG_FLAGS=01500000000000000000000000000000,transferMode.dlna.org: Streaming]]
2011-02-16 18:30:09,548 DEBUG [ResourceTransportRequestHandler] HEAD /resource/4942/MEDIA_ITEM/AVI HTTP/1.1, headers = [Host: 192.168.1.2:8895,Accept: */*,getcontentFeatures.dlna.org: 1,X-AV-Physical-Unit-Info: pa="Blu-ray Disc Player",X-AV-Client-Info: av=5.0; cn="Sony Corporation"; mn="Blu-ray Disc Player"; mv="2.0"]]
2011-02-16 18:30:09,548 DEBUG [RendererDAOImpl] Reading a Renderer with ip address 192.168.1.71
2011-02-16 18:30:09,548 DEBUG [ResourceTransportRequestHandler] Resource request accepted. Using client 'IPAddress=/192.168.1.71, Profile=Sony BD Player (US)'
2011-02-16 18:30:09,548 DEBUG [ResourceTransportRequestHandler] Request for resource 4942 and type 'MEDIA_ITEM' received
2011-02-16 18:30:09,548 DEBUG [MediaItemDAOImpl] Reading a MediaItem (id = 4942)
2011-02-16 18:30:09,548 DEBUG [VideoDAOImpl] Reading a Video (id = 4942)
2011-02-16 18:30:09,548 DEBUG [VideoDeliveryEngine] Retrieving resource information for item 4942, format AVI and profile Sony BD Player (US)
2011-02-16 18:30:09,548 DEBUG [ResourceTransportRequestHandler] Sending HEAD response back
2011-02-16 18:30:09,548 DEBUG [ResourceTransportRequestHandler] HTTP/1.1 200 OK, headers = [[Content-Type: video/mpeg,Content-Length: 737800192,Date: Thu, 17 Feb 2011 00:30:09 GMT,Server: Windows 2003, UPnP/1.0 DLNADOC/1.50, Serviio/0.5,Cache-control: no-cache,contentFeatures.dlna.org: DLNA.ORG_PN=MPEG_PS_NTSC;DLNA.ORG_OP=01;DLNA.ORG_CI=0;DLNA.ORG_FLAGS=01500000000000000000000000000000,transferMode.dlna.org: Streaming]]
2011-02-16 18:30:09,563 DEBUG [ResourceTransportRequestHandler] HEAD /resource/4942/MEDIA_ITEM/AVI HTTP/1.1, headers = [Host: 192.168.1.2:8895,Accept: */*,getcontentFeatures.dlna.org: 1,X-AV-Physical-Unit-Info: pa="Blu-ray Disc Player",X-AV-Client-Info: av=5.0; cn="Sony Corporation"; mn="Blu-ray Disc Player"; mv="2.0"]]
2011-02-16 18:30:09,563 DEBUG [RendererDAOImpl] Reading a Renderer with ip address 192.168.1.71
2011-02-16 18:30:09,563 DEBUG [ResourceTransportRequestHandler] Resource request accepted. Using client 'IPAddress=/192.168.1.71, Profile=Sony BD Player (US)'
2011-02-16 18:30:09,563 DEBUG [ResourceTransportRequestHandler] Request for resource 4942 and type 'MEDIA_ITEM' received
2011-02-16 18:30:09,563 DEBUG [MediaItemDAOImpl] Reading a MediaItem (id = 4942)
2011-02-16 18:30:09,563 DEBUG [VideoDAOImpl] Reading a Video (id = 4942)
2011-02-16 18:30:09,563 DEBUG [VideoDeliveryEngine] Retrieving resource information for item 4942, format AVI and profile Sony BD Player (US)
2011-02-16 18:30:09,563 DEBUG [ResourceTransportRequestHandler] Sending HEAD response back
2011-02-16 18:30:09,563 DEBUG [ResourceTransportRequestHandler] HTTP/1.1 200 OK, headers = [[Content-Type: video/mpeg,Content-Length: 737800192,Date: Thu, 17 Feb 2011 00:30:09 GMT,Server: Windows 2003, UPnP/1.0 DLNADOC/1.50, Serviio/0.5,Cache-control: no-cache,contentFeatures.dlna.org: DLNA.ORG_PN=MPEG_PS_NTSC;DLNA.ORG_OP=01;DLNA.ORG_CI=0;DLNA.ORG_FLAGS=01500000000000000000000000000000,transferMode.dlna.org: Streaming]]
2011-02-16 18:30:09,563 DEBUG [ResourceTransportRequestHandler] HEAD /resource/4942/MEDIA_ITEM/AVI HTTP/1.1, headers = [Host: 192.168.1.2:8895,Accept: */*,getcontentFeatures.dlna.org: 1,X-AV-Physical-Unit-Info: pa="Blu-ray Disc Player",X-AV-Client-Info: av=5.0; cn="Sony Corporation"; mn="Blu-ray Disc Player"; mv="2.0"]]
2011-02-16 18:30:09,563 DEBUG [RendererDAOImpl] Reading a Renderer with ip address 192.168.1.71
2011-02-16 18:30:09,563 DEBUG [ResourceTransportRequestHandler] Resource request accepted. Using client 'IPAddress=/192.168.1.71, Profile=Sony BD Player (US)'
2011-02-16 18:30:09,563 DEBUG [ResourceTransportRequestHandler] Request for resource 4942 and type 'MEDIA_ITEM' received
2011-02-16 18:30:09,563 DEBUG [MediaItemDAOImpl] Reading a MediaItem (id = 4942)
2011-02-16 18:30:09,579 DEBUG [VideoDAOImpl] Reading a Video (id = 4942)
2011-02-16 18:30:09,579 DEBUG [VideoDeliveryEngine] Retrieving resource information for item 4942, format AVI and profile Sony BD Player (US)
2011-02-16 18:30:09,579 DEBUG [ResourceTransportRequestHandler] Sending HEAD response back
2011-02-16 18:30:09,579 DEBUG [ResourceTransportRequestHandler] HTTP/1.1 200 OK, headers = [[Content-Type: video/mpeg,Content-Length: 737800192,Date: Thu, 17 Feb 2011 00:30:09 GMT,Server: Windows 2003, UPnP/1.0 DLNADOC/1.50, Serviio/0.5,Cache-control: no-cache,contentFeatures.dlna.org: DLNA.ORG_PN=MPEG_PS_NTSC;DLNA.ORG_OP=01;DLNA.ORG_CI=0;DLNA.ORG_FLAGS=01500000000000000000000000000000,transferMode.dlna.org: Streaming]]
2011-02-16 18:30:09,579 DEBUG [ResourceTransportRequestHandler] GET /resource/4942/MEDIA_ITEM/AVI HTTP/1.1, headers = [Host: 192.168.1.2:8895,Accept: */*,Range: bytes=0-11,getcontentFeatures.dlna.org: 1,Pragma: getIfoFileURI.dlna.org,transferMode.dlna.org: Streaming,X-AV-Physical-Unit-Info: pa="Blu-ray Disc Player",X-AV-Client-Info: av=5.0; cn="Sony Corporation"; mn="Blu-ray Disc Player"; mv="2.0"]]
2011-02-16 18:30:09,579 DEBUG [RendererDAOImpl] Reading a Renderer with ip address 192.168.1.71
2011-02-16 18:30:09,579 DEBUG [ResourceTransportRequestHandler] Resource request accepted. Using client 'IPAddress=/192.168.1.71, Profile=Sony BD Player (US)'
2011-02-16 18:30:09,579 DEBUG [ResourceTransportRequestHandler] Request for resource 4942 and type 'MEDIA_ITEM' received
2011-02-16 18:30:09,579 DEBUG [MediaItemDAOImpl] Reading a MediaItem (id = 4942)
2011-02-16 18:30:09,579 DEBUG [VideoDAOImpl] Reading a Video (id = 4942)
2011-02-16 18:30:09,579 DEBUG [VideoDeliveryEngine] Delivering item '4942' for client 'IPAddress=/192.168.1.71, Profile=Sony BD Player (US)'
2011-02-16 18:30:09,579 DEBUG [VideoDeliveryEngine] Delivering file 'Conviction.avi' in native format
2011-02-16 18:30:09,579 DEBUG [MediaItemDAOImpl] Getting file of media item 4942
2011-02-16 18:30:09,579 DEBUG [MediaItemDAOImpl] Marking MediaItem (id = 4942) as read
2011-02-16 18:30:09,595 DEBUG [LocalContentCacheDecorator] Cleared cache (local_resetafterplay)
2011-02-16 18:30:09,595 DEBUG [ResourceTransportRequestHandler] Creating stream entity with length: 12
2011-02-16 18:30:09,595 DEBUG [ResourceTransportRequestHandler] Sending file back
2011-02-16 18:30:09,595 DEBUG [ResourceTransportRequestHandler] HTTP/1.1 206 Partial Content, headers = [[Content-Type: video/mpeg,Content-Range: bytes 0-11/737800192,Content-Length: 12,Date: Thu, 17 Feb 2011 00:30:09 GMT,Server: Windows 2003, UPnP/1.0 DLNADOC/1.50, Serviio/0.5,Cache-control: no-cache,contentFeatures.dlna.org: DLNA.ORG_PN=MPEG_PS_NTSC;DLNA.ORG_OP=01;DLNA.ORG_CI=0;DLNA.ORG_FLAGS=01500000000000000000000000000000,transferMode.dlna.org: Streaming]]
2011-02-16 18:30:09,595 DEBUG [ResourceTransportRequestHandler] GET /resource/4942/MEDIA_ITEM/AVI HTTP/1.1, headers = [Host: 192.168.1.2:8895,Accept: */*,Range: bytes=737798954-737798965,getcontentFeatures.dlna.org: 1,Pragma: getIfoFileURI.dlna.org,transferMode.dlna.org: Streaming,X-AV-Physical-Unit-Info: pa="Blu-ray Disc Player",X-AV-Client-Info: av=5.0; cn="Sony Corporation"; mn="Blu-ray Disc Player"; mv="2.0"]]
2011-02-16 18:30:09,595 DEBUG [RendererDAOImpl] Reading a Renderer with ip address 192.168.1.71
2011-02-16 18:30:09,595 DEBUG [ResourceTransportRequestHandler] Resource request accepted. Using client 'IPAddress=/192.168.1.71, Profile=Sony BD Player (US)'
2011-02-16 18:30:09,595 DEBUG [ResourceTransportRequestHandler] Request for resource 4942 and type 'MEDIA_ITEM' received
2011-02-16 18:30:09,595 DEBUG [MediaItemDAOImpl] Reading a MediaItem (id = 4942)
2011-02-16 18:30:09,595 DEBUG [VideoDAOImpl] Reading a Video (id = 4942)
2011-02-16 18:30:09,595 DEBUG [VideoDeliveryEngine] Delivering item '4942' for client 'IPAddress=/192.168.1.71, Profile=Sony BD Player (US)'
2011-02-16 18:30:09,595 DEBUG [VideoDeliveryEngine] Delivering file 'Conviction.avi' in native format
2011-02-16 18:30:09,595 DEBUG [MediaItemDAOImpl] Getting file of media item 4942
2011-02-16 18:30:09,595 DEBUG [ResourceTransportRequestHandler] Creating stream entity with length: 12
2011-02-16 18:30:09,595 DEBUG [ResourceTransportRequestHandler] Sending file back
2011-02-16 18:30:09,595 DEBUG [ResourceTransportRequestHandler] HTTP/1.1 206 Partial Content, headers = [[Content-Type: video/mpeg,Content-Range: bytes 737798954-737798965/737800192,Content-Length: 12,Date: Thu, 17 Feb 2011 00:30:09 GMT,Server: Windows 2003, UPnP/1.0 DLNADOC/1.50, Serviio/0.5,Cache-control: no-cache,contentFeatures.dlna.org: DLNA.ORG_PN=MPEG_PS_NTSC;DLNA.ORG_OP=01;DLNA.ORG_CI=0;DLNA.ORG_FLAGS=01500000000000000000000000000000,transferMode.dlna.org: Streaming]]
2011-02-16 18:30:09,907 DEBUG [ResourceTransportRequestHandler] GET /resource/4942/MEDIA_ITEM/AVI HTTP/1.1, headers = [Host: 192.168.1.2:8895,Accept: */*,Range: bytes=0-127743,getcontentFeatures.dlna.org: 1,Pragma: getIfoFileURI.dlna.org,transferMode.dlna.org: Streaming,X-AV-Physical-Unit-Info: pa="Blu-ray Disc Player",X-AV-Client-Info: av=5.0; cn="Sony Corporation"; mn="Blu-ray Disc Player"; mv="2.0"]]
2011-02-16 18:30:09,907 DEBUG [RendererDAOImpl] Reading a Renderer with ip address 192.168.1.71
2011-02-16 18:30:09,907 DEBUG [ResourceTransportRequestHandler] Resource request accepted. Using client 'IPAddress=/192.168.1.71, Profile=Sony BD Player (US)'
2011-02-16 18:30:09,907 DEBUG [ResourceTransportRequestHandler] Request for resource 4942 and type 'MEDIA_ITEM' received
2011-02-16 18:30:09,907 DEBUG [MediaItemDAOImpl] Reading a MediaItem (id = 4942)
2011-02-16 18:30:09,923 DEBUG [VideoDAOImpl] Reading a Video (id = 4942)
2011-02-16 18:30:09,923 DEBUG [VideoDeliveryEngine] Delivering item '4942' for client 'IPAddress=/192.168.1.71, Profile=Sony BD Player (US)'
2011-02-16 18:30:09,923 DEBUG [VideoDeliveryEngine] Delivering file 'Conviction.avi' in native format
2011-02-16 18:30:09,923 DEBUG [MediaItemDAOImpl] Getting file of media item 4942
2011-02-16 18:30:09,923 DEBUG [MediaItemDAOImpl] Marking MediaItem (id = 4942) as read
2011-02-16 18:30:09,923 DEBUG [LocalContentCacheDecorator] Cleared cache (local_resetafterplay)
2011-02-16 18:30:09,923 DEBUG [ResourceTransportRequestHandler] Creating stream entity with length: 127744
2011-02-16 18:30:09,923 DEBUG [ResourceTransportRequestHandler] Sending file back
2011-02-16 18:30:09,923 DEBUG [ResourceTransportRequestHandler] HTTP/1.1 206 Partial Content, headers = [[Content-Type: video/mpeg,Content-Range: bytes 0-127743/737800192,Content-Length: 127744,Date: Thu, 17 Feb 2011 00:30:09 GMT,Server: Windows 2003, UPnP/1.0 DLNADOC/1.50, Serviio/0.5,Cache-control: no-cache,contentFeatures.dlna.org: DLNA.ORG_PN=MPEG_PS_NTSC;DLNA.ORG_OP=01;DLNA.ORG_CI=0;DLNA.ORG_FLAGS=01500000000000000000000000000000,transferMode.dlna.org: Streaming]]
2011-02-16 18:30:11,282 DEBUG [WebServer] Incoming connection from /192.168.1.71:55397
2011-02-16 18:30:11,282 DEBUG [ServiceControlRequestHandler] ServiceControl request received for action '"urn:schemas-upnp-org:service:ContentDirectory:1#Browse"' from 192.168.1.71:
2011-02-16 18:30:11,282 DEBUG [RendererDAOImpl] Reading a Renderer with ip address 192.168.1.71
2011-02-16 18:30:11,423 DEBUG [ContentDirectory] Browse() called for profile Sony BD Player (US) with parameters: objectID = V_F#FOL_R2$F393, browseFlag = BrowseDirectChildren, filter = av:mediaClass,dc:title,dc:date,@childCount,upnp:class,res,res@resolution,res@protocolInfo,res@size,res@duration,res@bitrate,res@dlna:ifoFileURI, startIndex = 1, count = 10, sortCriteria =
2011-02-16 18:30:11,423 DEBUG [LocalContentCacheDecorator] Found entry in the cache (local_default), returning it
2011-02-16 18:30:11,423 DEBUG [ServiceControlRequestHandler] Returning OK SOAP message


I get similar failures with Simpsons S12.

  Code:
FFmpeg version UNKNOWN, Copyright (c) 2000-2011 the FFmpeg developers
  built on Jan 10 2011 21:46:22 with gcc 4.4.2
  configuration: --enable-static --disable-shared --disable-shared --disable-ffp
lay --disable-ffserver --enable-memalign-hack --enable-libmp3lame --arch=x86 --e
nable-runtime-cpudetect --enable-w32threads --target-os=mingw32 --cross-prefix=i
686-mingw32-
  libavutil     50.36. 0 / 50.36. 0
  libavcore      0.16. 0 /  0.16. 0
  libavcodec    52.108. 0 / 52.108. 0
  libavformat   52.92. 0 / 52.92. 0
  libavdevice   52. 2. 3 / 52. 2. 3
  libavfilter    1.72. 0 /  1.72. 0
  libswscale     0.12. 0 /  0.12. 0
Input #0, avi, from 'Simpsons 12x01 - Tree House o
f Horror XI [rl].avi':
  Duration: 00:21:22.71, start: 0.000000, bitrate: 558 kb/s
    Stream #0.0: Video: msmpeg4, yuv420p, 320x240, 29.97 tbr, 29.97 tbn, 29.97 t
bc
    Stream #0.1: Audio: mp3, 44100 Hz, 2 channels, s16, 111 kb/s
At least one output file must be specified
<<

WizarDru

Serviio newbie

Posts: 4

Joined: Thu Feb 17, 2011 1:20 am

Post Thu Feb 17, 2011 1:25 am

Re: [Profile] Sony BluRay Players (BDP-S370)

Hello all,

I want to see if I'm missing something. I've installed Serviio and applied the Sony update for the US player for version 0.5. I have stopped the server, then stopped the Serviio service under Windows 7 and restarted. Everything starts fine. However, two things. It misidentifies my US player as an EU player. Second, I notice that no matter what changes I seem to make to Profiles.xml in the config folder, the options available under the console don't appear to change. I tried adding a 'profile 14' and I tried adding the phrase '-S370' to the US profile...but neither shows up as an option in the console.

Is that normal behavior? Have I missed some step to configure it?

Thanks in advance for any advice.
<<

fixitchris

Streaming enthusiast

Posts: 23

Joined: Fri Dec 17, 2010 1:44 pm

Post Thu Feb 17, 2011 1:56 am

Re: [Profile] Sony BluRay Players (BDP-S370)

My US player is also identified as EU. I just removed all profiles but 1 and 11 not to get mixed up.
<<

WizarDru

Serviio newbie

Posts: 4

Joined: Thu Feb 17, 2011 1:20 am

Post Thu Feb 17, 2011 2:15 am

Re: [Profile] Sony BluRay Players (BDP-S370)

I tried that, but then the Serviio service would stop after I started it.
<<

WizarDru

Serviio newbie

Posts: 4

Joined: Thu Feb 17, 2011 1:20 am

Post Thu Feb 17, 2011 2:23 am

Re: [Profile] Sony BluRay Players (BDP-S370)

WizarDru wrote:I tried that, but then the Serviio service would stop after I started it.


Ah! According to the log, it needs the profiles in numerical order. I'll need to renumber them. I'll try that.
<<

fixitchris

Streaming enthusiast

Posts: 23

Joined: Fri Dec 17, 2010 1:44 pm

Post Thu Feb 17, 2011 2:24 am

Re: [Profile] Sony BluRay Players (BDP-S370)

Mine works fine with 1 and 11 only.
Make sure you move the detection tag to profile 11.
  Code:
<Detection>
         <HttpHeaders>
            <X-AV-Client-Info>.*Blu-ray Disc Player.*</X-AV-Client-Info>
         </HttpHeaders>
      </Detection>

and make sure you don't have comments inside comments:
  Code:
<!--  <!-- --> -->

The log file will show you why it did not start.
<<

zip

User avatar

Serviio developer / Site Admin

Posts: 17079

Joined: Sat Oct 24, 2009 12:24 pm

Location: London, UK

Post Thu Feb 17, 2011 9:36 am

Re: [Profile] Sony BluRay Players (BDP-S370)

No need to have them in order, the ID just has to be a unique number
<<

Illico

User avatar

DLNA master

Posts: 4645

Joined: Fri Jul 23, 2010 8:08 am

Location: France

Post Thu Feb 17, 2011 11:10 am

Re: [Profile] Sony BluRay Players (BDP-S370)

Firmware update: M03.R.742, no DLNA improvement

About this upgrade (10/02/2011) :
This utility upgrades the Blu-ray player firmware to version M03.R.742 and provides the following benefits:
* BD-ROM playability improvement
* When DVD playback is done in upscale to 1080p, the horizontal bar might be displayed.
Illico
Sony 2010 KDL-46EX501 | BDP-S373 | SMP-N100 | Windows 8-i7 | Network DD HD-CE1.5TLU2 | Livebox2-UHD86 | ServiiDroid | ServiiGo | BubbleUPnP
Serviio beta tester - Moderator
<<

amunoz_tico

User avatar

Streaming enthusiast

Posts: 42

Joined: Tue Oct 12, 2010 3:14 pm

Location: Costa Rica

Post Fri Feb 18, 2011 12:07 am

Re: [Profile] Sony BluRay Players (BDP-S370)

Illico wrote:Firmware update: M03.R.742, no DLNA improvement

About this upgrade (10/02/2011) :
This utility upgrades the Blu-ray player firmware to version M03.R.742 and provides the following benefits:
* BD-ROM playability improvement
* When DVD playback is done in upscale to 1080p, the horizontal bar might be displayed.



Thanks.. The Sony's US WebSite has the following statement:

" IMPORTANT: The Network Upgrade for the BDP-S270 and BDP-370 will be available starting February 18, 2011. "


Regards!


Regards!
Samsung PN60E7000, UN46C7000, BD-C6900, BD-D5500, BD-E5700 ¬ Sony PS3, Wii ¬ LG BD670 ¬ Pioneer VSX-820-K ¬ Bose Acoustimass 15 ¬ Synology DS413j ¬ Cisco EA4500 ¬ Monster HDP2400
<<

WizarDru

Serviio newbie

Posts: 4

Joined: Thu Feb 17, 2011 1:20 am

Post Fri Feb 18, 2011 8:29 pm

Re: [Profile] Sony BluRay Players (BDP-S370)

fixitchris wrote:The log file will show you why it did not start.


It did, I misread it. I left in an option that depended on a deleted profile. I corrected it and the server started properly.

However, still no luck. The same default choices still show up in the console, even though the log shows that it only read in the profiles that I left in (sony bd-us, ps3, xbox and generic DLNA). In the drop-down box, it still shows the same 13 default choices. Is it actually applying correctly?

Here's the snippet from the log last night, below. Any suggestions? Thanks.


  Code:
2011-02-17 23:09:33,561 INFO  [LibraryAdditionsCheckerThread] Finished looking for newly added files
2011-02-17 23:09:33,761 INFO  [WebServer] WebServer shutting down
2011-02-17 23:09:33,761 INFO  [DiscoveryAdvertisementNotifier] Leaving DiscoveryAdvertisementNotifier
2011-02-17 23:09:33,761 INFO  [EventDispatcher] Leaving EventDispatcher
2011-02-17 23:09:33,762 INFO  [EventSubscriptionExpirationChecker] Leaving EventSubscriptionExpirationChecker, removing all event subscriptions
2011-02-17 23:09:33,919 INFO  [DiscoverySSDPMessageListener] Leaving DiscoverySSDPMessageListener
2011-02-17 23:09:33,919 INFO  [DatabaseManager] Shutting down database
2011-02-17 23:09:33,935 INFO  [VideoDeliveryEngine] Cleaning transcode engine and its data
2011-02-17 23:09:34,887 INFO  [MediaServer] ------------------------------------------------------------------------
2011-02-17 23:09:34,887 INFO  [MediaServer] Serviio DLNA media streaming server v 0.5 (rev. 975aa458693c)
2011-02-17 23:09:34,887 INFO  [MediaServer] Petr Nejedly 2009-2011
2011-02-17 23:09:34,887 INFO  [MediaServer] http://www.serviio.org
2011-02-17 23:09:34,887 INFO  [MediaServer]
2011-02-17 23:09:34,887 INFO  [MediaServer] Java 1.6.0_14-Sun Microsystems Inc.
2011-02-17 23:09:34,887 INFO  [MediaServer] OS Windows 7 amd64 6.1
2011-02-17 23:09:34,887 INFO  [MediaServer] File encoding: windows-1252
2011-02-17 23:09:34,902 INFO  [MediaServer] ------------------------------------------------------------------------
2011-02-17 23:09:34,949 INFO  [RestletServer] Starting Restlet server exposed on localhost:23423
2011-02-17 23:09:34,996 INFO  [DBSchemaUpdateExecutor] Checking if DB schema needs to be updated
2011-02-17 23:09:35,667 INFO  [ProfilesDefinitionParser] Parsing Profiles definition
2011-02-17 23:09:35,947 INFO  [ProfilesDefinitionParser] Added profile 'Generic DLNA profile' (id=1)
2011-02-17 23:09:35,979 INFO  [ProfilesDefinitionParser] Added profile 'XBox 360' (id=3)
2011-02-17 23:09:35,994 INFO  [ProfilesDefinitionParser] Added profile 'Playstation 3' (id=4)
2011-02-17 23:09:36,166 INFO  [ProfilesDefinitionParser] Added profile 'Sony BD Player (US)' (id=11)
2011-02-17 23:09:36,353 INFO  [ProfilesDefinitionParser] Added profile 'S370 BD-Player' (id=14)
2011-02-17 23:09:36,384 INFO  [VideoDeliveryEngine] Cleaning transcode engine and its data
2011-02-17 23:09:36,400 INFO  [WebServer] Socket buffer set to 65535 bytes
2011-02-17 23:09:36,415 INFO  [WebServer] WebServer starting on port 8895
2011-02-17 23:09:36,587 INFO  [Device] Created UPnP Device with UUID: 3d3a65b8-9910-3111-900d-0c65ab0f6bfa, bound address: 192.168.1.100
2011-02-17 23:09:36,603 INFO  [CompositeCacheManager] Creating cache manager from config file: /cache.ccf
2011-02-17 23:09:36,603 INFO  [ThreadPoolManager] thread_pool.default PoolConfiguration = useBoundary = [true] boundarySize = [2000] maximumPoolSize = [150] minimumPoolSize = [4] keepAliveTime = [300000] whenBlockedPolicy = [RUN] startUpSize = [4]
2011-02-17 23:09:36,603 INFO  [CompositeCacheConfigurator] Setting default auxiliaries to null
2011-02-17 23:09:36,603 INFO  [CompositeCacheConfigurator] No special CompositeCacheAttributes class defined for key [jcs.default.cacheattributes], using default class.
2011-02-17 23:09:36,603 INFO  [CompositeCacheConfigurator] setting defaultCompositeCacheAttributes to [ useLateral = true, useRemote = true, useDisk = true, maxObjs = 100, maxSpoolPerRun = -1, diskUsagePattern = 0 ]
2011-02-17 23:09:36,603 INFO  [CompositeCacheConfigurator] No special ElementAttribute class defined for key [jcs.default.elementattributes], using default class.
2011-02-17 23:09:36,603 INFO  [CompositeCacheConfigurator] setting defaultElementAttributes to [ IS_LATERAL = true, IS_SPOOL = true, IS_REMOTE = true, IS_ETERNAL = true, MaxLifeSeconds = -1, IdleTime = -1, CreateTime = 1298002176603, LastAccessTime = 1298002176603, getTimeToLiveSeconds() = -1, createTime = 1298002176603 ]
2011-02-17 23:09:36,603 INFO  [CompositeCacheConfigurator] No special ElementAttribute class defined for key [jcs.region.local_resetafterplay.elementattributes], using default class.
2011-02-17 23:09:36,618 INFO  [LRUMemoryCache] initialized LRUMemoryCache for local_resetafterplay
2011-02-17 23:09:36,618 INFO  [CompositeCache] Constructed cache with name [local_resetafterplay] and cache attributes [ useLateral = true, useRemote = true, useDisk = true, maxObjs = 1000, maxSpoolPerRun = -1, diskUsagePattern = 0 ]
2011-02-17 23:09:36,618 INFO  [CompositeCacheConfigurator] No special ElementAttribute class defined for key [jcs.region.local_default.elementattributes], using default class.
2011-02-17 23:09:36,618 INFO  [LRUMemoryCache] initialized LRUMemoryCache for local_default
2011-02-17 23:09:36,618 INFO  [CompositeCache] Constructed cache with name [local_default] and cache attributes [ useLateral = true, useRemote = true, useDisk = true, maxObjs = 1000, maxSpoolPerRun = -1, diskUsagePattern = 0 ]
2011-02-17 23:09:36,618 INFO  [CompositeCacheConfigurator] Parsed regions [local_resetafterplay, local_default]
2011-02-17 23:09:36,618 INFO  [CompositeCacheConfigurator] Finished configuration in 15 ms.
2011-02-17 23:09:36,618 INFO  [EventSubscriptionExpirationChecker] Starting EventSubscriptionExpirationChecker
2011-02-17 23:09:36,618 INFO  [EventDispatcher] Starting EventDispatcher
2011-02-17 23:09:36,618 INFO  [DiscoveryAdvertisementNotifier] Starting DiscoveryAdvertisementNotifier
2011-02-17 23:09:36,618 INFO  [RendererSearchSender] Searching for Renderer devices
2011-02-17 23:09:36,618 INFO  [RendererExpirationChecker] Starting RendererExpirationChecker
2011-02-17 23:09:36,634 INFO  [DiscoverySSDPMessageListener] Starting DiscoverySSDPMessageListener using interface eth3 (Broadcom NetLink (TM) Gigabit Ethernet) and address 192.168.1.100, timeout = 0
2011-02-17 23:09:59,142 INFO  [WebServer] WebServer shutting down
2011-02-17 23:09:59,142 INFO  [EventSubscriptionExpirationChecker] Leaving EventSubscriptionExpirationChecker, removing all event subscriptions
2011-02-17 23:09:59,142 INFO  [EventDispatcher] Leaving EventDispatcher
2011-02-17 23:09:59,142 INFO  [DiscoveryAdvertisementNotifier] Leaving DiscoveryAdvertisementNotifier
2011-02-17 23:09:59,298 INFO  [DiscoverySSDPMessageListener] Leaving DiscoverySSDPMessageListener
2011-02-17 23:10:00,546 INFO  [WebServer] WebServer starting on port 8895
2011-02-17 23:10:00,546 INFO  [EventSubscriptionExpirationChecker] Starting EventSubscriptionExpirationChecker
2011-02-17 23:10:00,546 INFO  [RendererSearchSender] Searching for Renderer devices
2011-02-17 23:10:00,546 INFO  [EventDispatcher] Starting EventDispatcher
2011-02-17 23:10:00,546 INFO  [DiscoveryAdvertisementNotifier] Starting DiscoveryAdvertisementNotifier
2011-02-17 23:10:00,562 INFO  [DiscoverySSDPMessageListener] Starting DiscoverySSDPMessageListener using interface eth3 (Broadcom NetLink (TM) Gigabit Ethernet) and address 192.168.1.100, timeout = 0
2011-02-17 23:10:01,650 INFO  [RendererExpirationChecker] Leaving RendererExpirationChecker
2011-02-17 23:10:02,835 INFO  [LibraryAdditionsCheckerThread] Started looking for newly added files
2011-02-17 23:10:02,835 INFO  [LibraryUpdatesCheckerThread] Started looking for updates to currently shared files
2011-02-17 23:10:14,114 INFO  [WebServer] WebServer shutting down
2011-02-17 23:10:14,114 INFO  [DiscoverySSDPMessageListener] Leaving DiscoverySSDPMessageListener
2011-02-17 23:10:14,114 INFO  [EventDispatcher] Leaving EventDispatcher
2011-02-17 23:10:14,114 INFO  [EventSubscriptionExpirationChecker] Leaving EventSubscriptionExpirationChecker, removing all event subscriptions
2011-02-17 23:10:14,286 INFO  [WebServer] WebServer starting on port 8895
2011-02-17 23:10:14,286 INFO  [EventSubscriptionExpirationChecker] Starting EventSubscriptionExpirationChecker
2011-02-17 23:10:14,286 INFO  [EventDispatcher] Starting EventDispatcher
2011-02-17 23:10:14,286 INFO  [RendererSearchSender] Searching for Renderer devices
2011-02-17 23:10:14,286 INFO  [DiscoveryAdvertisementNotifier] Starting DiscoveryAdvertisementNotifier
2011-02-17 23:10:14,301 INFO  [DiscoverySSDPMessageListener] Starting DiscoverySSDPMessageListener using interface eth3 (Broadcom NetLink (TM) Gigabit Ethernet) and address 192.168.1.100, timeout = 0
2011-02-17 23:10:24,885 INFO  [DiscoveryAdvertisementNotifier] Leaving DiscoveryAdvertisementNotifier
<<

Picard007

Serviio newbie

Posts: 3

Joined: Tue Feb 22, 2011 12:21 pm

Post Tue Feb 22, 2011 12:50 pm

Re: [Profile] Sony BluRay Players (BDP-S370)

Hi,

i´ve two questions. (iwant to buy the s-370 EU-Modell)

Is the 60hz problem (MKV stream over Network - LCD show 1080p/60hz instead of 24Hz) still there ?

Did the S-370 show the embedded subtitles (stream Network / serviio)?

Thank you

Picard007
PreviousNext

Return to Sony

Who is online

Users browsing this forum: No registered users and 18 guests

Powered by phpBB © 2000, 2002, 2005, 2007 phpBB Group.
Designed by ST Software for PTF.