FAQ  •  Register  •  Login

LG 42LS570S how to enable rmvb playback

<<

bartek_75

Serviio newbie

Posts: 6

Joined: Sun Dec 30, 2012 5:09 pm

Post Sun Dec 30, 2012 5:21 pm

LG 42LS570S how to enable rmvb playback

Is there a way to play rmvb files on this tv set? The tv displays rmvb files on the list with "no entry" sign on them.

Some info:
Serviio 1.1 on Windows XP.
TV LG 42LS570S - protocol
  Code:
http-get:*:image/jpeg:DLNA.ORG_PN=JPEG_SM,
http-get:*:image/jpeg:DLNA.ORG_PN=JPEG_MED,
http-get:*:image/jpeg:DLNA.ORG_PN=JPEG_LRG,
http-get:*:audio/L16;rate=44100;channels=1:DLNA.ORG_PN=LPCM,
http-get:*:audio/L16;rate=44100;channels=2:DLNA.ORG_PN=LPCM,
http-get:*:audio/mpeg:DLNA.ORG_PN=MP3,
http-get:*:audio/x-ms-wma:DLNA.ORG_PN=WMAFULL,
http-get:*:audio/x-ms-wma:DLNA.ORG_PN=WMABASE,
http-get:*:video/mpeg:DLNA.ORG_PN=MPEG_PS_PAL,
http-get:*:video/mpeg:DLNA.ORG_PN=MPEG_PS_NTSC,
http-get:*:video/vnd.dlna.mpeg-tts:DLNA.ORG_PN=MPEG_TS_SD_NA,
http-get:*:video/vnd.dlna.mpeg-tts:DLNA.ORG_PN=MPEG_TS_SD_NA_T,
http-get:*:video/mpeg:DLNA.ORG_PN=MPEG_TS_SD_NA_ISO,
http-get:*:video/vnd.dlna.mpeg-tts:DLNA.ORG_PN=MPEG_TS_HD_NA,
http-get:*:video/vnd.dlna.mpeg-tts:DLNA.ORG_PN=MPEG_TS_HD_NA_T,
http-get:*:video/mpeg:DLNA.ORG_PN=MPEG_TS_HD_NA_ISO,
http-get:*:video/vnd.dlna.mpeg-tts:DLNA.ORG_PN=MPEG_TS_SD_KO,
http-get:*:video/vnd.dlna.mpeg-tts:DLNA.ORG_PN=MPEG_TS_SD_KO_T,
http-get:*:video/mpeg:DLNA.ORG_PN=MPEG_TS_SD_KO_ISO,
http-get:*:video/vnd.dlna.mpeg-tts:DLNA.ORG_PN=MPEG_TS_HD_KO,
http-get:*:video/vnd.dlna.mpeg-tts:DLNA.ORG_PN=MPEG_TS_HD_KO_T,
http-get:*:video/mpeg:DLNA.ORG_PN=MPEG_TS_HD_KO_ISO,
http-get:*:video/vnd.dlna.mpeg-tts:DLNA.ORG_PN=MPEG_TS_SD_EU,
http-get:*:video/vnd.dlna.mpeg-tts:DLNA.ORG_PN=MPEG_TS_SD_EU_T,
http-get:*:video/mpeg:DLNA.ORG_PN=MPEG_TS_SD_EU_ISO,
http-get:*:video/vnd.dlna.mpeg-tts:DLNA.ORG_PN=MPEG_TS_JP_T,
http-get:*:video/mp4:DLNA.ORG_PN=AVC_MP4_BL_CIF15_AAC_520,
http-get:*:video/x-ms-wmv:DLNA.ORG_PN=WMVHIGH_FULL,
http-get:*:video/x-ms-wmv:DLNA.ORG_PN=WMVHIGH_PRO,
http-get:*:video/x-ms-wmv:DLNA.ORG_PN=WMVMED_BASE,
http-get:*:video/x-ms-wmv:DLNA.ORG_PN=WMVMED_FULL,
http-get:*:video/x-ms-wmv:DLNA.ORG_PN=WMVMED_PRO,
http-get:*:audio/mpegurl:*,
http-get:*:audio/mp3:*,
http-get:*:audio/mpeg:*,
http-get:*:audio/mpeg3:*,
http-get:*:video/x-ms-wmv:*,
http-get:*:video/x-ms-asf:*,
http-get:*:video/x-ms-avi:*,
http-get:*:video/mpeg:*,
http-get:*:video/avi:*,
http-get:*:video/mp4:*,
http-get:*:video/x-matroska:*


File info:
  Code:
ffmpeg version N-48284-g518239c Copyright (c) 2000-2012 the FFmpeg developers
  built on Dec 29 2012 22:38:19 with gcc 4.7.2 (GCC)
  configuration: --enable-gpl --enable-version3 --disable-w32threads --enable-av
isynth --enable-bzlib --enable-fontconfig --enable-frei0r --enable-gnutls --enab
le-libass --enable-libbluray --enable-libcaca --enable-libfreetype --enable-libg
sm --enable-libmp3lame --enable-libopencore-amrnb --enable-libopencore-amrwb --e
nable-libopenjpeg --enable-libopus --enable-librtmp --enable-libschroedinger --e
nable-libtheora --enable-libtwolame --enable-libvo-aacenc --enable-libvo-amrwben
c --enable-libvorbis --enable-libvpx --enable-libx264 --enable-libxavs --enable-
libxvid --enable-zlib
  libavutil      52. 12.100 / 52. 12.100
  libavcodec     54. 81.100 / 54. 81.100
  libavformat    54. 50.104 / 54. 50.104
  libavdevice    54.  3.102 / 54.  3.102
  libavfilter     3. 30.101 /  3. 30.101
  libswscale      2.  1.103 /  2.  1.103
  libswresample   0. 17.102 /  0. 17.102
  libpostproc    52.  2.100 / 52.  2.100
[rm @ 024e7a40] Invalid stream index 2 for index at pos 307726269
Input #0, rm, from 'test.rmvb':
  Metadata:
    title           :
    author          :
    copyright       :
    comment         :
    ASMRuleBook     : #($Bandwidth >= 0),Stream0Bandwidth = 64082, Stream1Bandwi
dth = 385918;
    Audiences       : Easy RealMedia Tool's Audience;
    audioMode       : music
    Creation Date   : 7/25/2009 20:04:19
    Description     : This File is Created by Easy RealMedia Tools@!
    Email           : rick@redcheek.net
    Generated By    : Easy RealMedia Tools V1.8x
    HomeWeb         : http://redcheek.net
    Keywords        :
    Modification Date: 7/25/2009 20:04:19
    videoMode       : normal
  Duration: 01:29:30.33, start: 0.000000, bitrate: 458 kb/s
    Stream #0:0: Audio: cook (cook / 0x6B6F6F63), 44100 Hz, stereo, fltp, 64 kb/
s
    Stream #0:1: Video: rv40 (RV40 / 0x30345652), yuv420p, 640x352, 386 kb/s, 25
 fps, 25 tbr, 1k tbn, 1k tbc
At least one output file must be specified


Thanks
LG 42LS570S
<<

zip

User avatar

Serviio developer / Site Admin

Posts: 17039

Joined: Sat Oct 24, 2009 12:24 pm

Location: London, UK

Post Mon Dec 31, 2012 5:22 pm

Re: LG 42LS570S how to enable rmvb playback

Try to update the LG profile like this:

  Code:
<Profile id="8" name="LG TV / player" extendsProfileId="1">
      <Detection>
         <HttpHeaders>
            <friendlyName.dlna.org>LG.*</friendlyName.dlna.org>
         </HttpHeaders>
      </Detection>
      <!-- ResourceTransportProtocolHandler>org.serviio.upnp.protocol.http.transport.LGProtocolHandler</ResourceTransportProtocolHandler -->
      <MediaFormatProfiles>
         <MediaFormatProfile mime-type="video/mp4" name="">AVI</MediaFormatProfile>
      </MediaFormatProfiles>
      <SubtitlesMimeType>text/srt</SubtitlesMimeType>
      <Transcoding>
         <Video targetContainer="mpegts" targetVCodec="mpeg2video" targetACodec="ac3" >
            <Matches container="flv" />
               <Matches container="asf" vCodec="wmv2"/>
               <Matches container="rm" />
         </Video>
      </Transcoding>
   </Profile>
<<

bartek_75

Serviio newbie

Posts: 6

Joined: Sun Dec 30, 2012 5:09 pm

Post Wed Jan 02, 2013 7:09 pm

Re: LG 42LS570S how to enable rmvb playback

Thanx,
this profile enabled rmvb and flv playback.
Unfortunately i can not forward nor rewind the playback of these files, the only function working is pause/play. I am aware it is because of transcoding. Maybe there is a way to resume playback from previous position ? Now if i have to stop before the end of the movie i have to start it from the beginning.

Best regards.

Bartek
LG 42LS570S

Return to LG

Who is online

Users browsing this forum: No registered users and 2 guests

cron
Powered by phpBB © 2000, 2002, 2005, 2007 phpBB Group.
Designed by ST Software for PTF.