Page 1 of 1

Panasonic TX-40CS630E

PostPosted: Sun Jul 14, 2019 9:44 pm
by Oodini
Hello,

I set up in Serviio 2.0 two directories so that they can be read with DNLA : one with audio, and an other one with videos.

My TV TX-40CS630E can see only the auudio directory. It doesn't display the directory containing video files.

Re: Panasonic TX-40CS630E

PostPosted: Sun Jul 14, 2019 10:00 pm
by Oodini
Argh !
The videos presentation was by default disabled.
WHY ?... :(

Re: Panasonic TX-40CS630E

PostPosted: Mon Jul 15, 2019 12:15 am
by atc98092
Never seen that before. Every time I've installed Serviio it always defaults to all presentations enabled.

Re: Panasonic TX-40CS630E

PostPosted: Fri Dec 27, 2019 10:38 am
by Paullik74
Hi,
I've got a problem with my Panasonic TX-50CS630E and one of my MKV file.

Problem (mp4 video for better illustrativeness, its hard for me to explain it):
https://drive.google.com/file/d/1ep_iPdRuvT9ZbB8k6alUsdDG3VDsgc8C/view?usp=sharing

Serviio 2.0 settings:
2019-12-27.png
2019-12-27.png (54.13 KiB) Viewed 3420 times


File mediaInfo:
  Code:
Hlavní
Unique ID                                : 22406822310707873275334624764382235876 (0x10DB65A219322F8452FFE79E59194CE4)
Complete name                            : E:\Videa 2\Filmy\Hobit\(1) Hobit - Neočekávaná cesta (2012)\(1) Hobit - Neočekávaná cesta (2012) [tt0903624].mkv
Format                                   : Matroska
Format version                           : Version 4
File size                                : 36,2 GiB
Duration                                 : 3 h 2 min
Overall bit rate                         : 28,4 Mb/s
Movie name                               : The Hobbit: An Unexpected Journey Extended
Encoded date                             : UTC 2019-12-26 09:59:52
Writing application                      : mkvmerge v41.0.0 ('Smarra') 64-bit
Writing library                          : libebml v1.3.9 + libmatroska v1.5.2
Cover                                    : Yes
Attachments                              : cover.jpg

Video
ID                                       : 1
Format                                   : AVC
Format/Info                              : Advanced Video Codec
Format profile                           : High@L4.1
Format settings                          : CABAC / 2 Ref Frames
Format settings, CABAC                   : Ano
Format settings, ReFrames                : 2 frame
Codec ID                                 : V_MPEG4/ISO/AVC
Duration                                 : 3 h 2 min
Bit rate                                 : 20,9 Mb/s
Width                                    : 1 920pixely
Height                                   : 1 080pixely
Display aspect ratio                     : 16:9
Frame rate                               : 23,976 (24000/1001) FPS
Color space                              : YUV
Chroma subsampling                       : 4:2:0
Bit depth                                : 8 bits
Scan type                                : Progressive
Bits/(Pixel*Frame)                       : 0.419
Stream size                              : 26,6 GiB (73%)
Language                                 : English
Default                                  : Ano
Forced                                   : Ano

Audio #1
ID                                       : 2
Format                                   : AC-3
Format/Info                              : Audio Coding 3
Commercial name                          : Dolby Digital
Codec ID                                 : A_AC3
Duration                                 : 3 h 2 min
Bit rate                                 : 448 kb/s
Channel(s)                               : 6 kanály
Channel layout                           : L R C LFE Ls Rs
Sampling rate                            : 48,0 kHz
Frame rate                               : 31,250 FPS (1536 SPF)
Stream size                              : 585 MiB (2%)
Title                                    : Surround 5.1
Language                                 : Czech
Service kind                             : Complete Main
Default                                  : Ano
Forced                                   : Ano

Audio #2
ID                                       : 3
Format                                   : DTS XLL
Format/Info                              : Digital Theater Systems
Commercial name                          : DTS-HD Master Audio
Codec ID                                 : A_DTS
Duration                                 : 3 h 2 min
Bit rate                                 : 5 339 kb/s
Channel(s)                               : 8 kanály
Channel layout                           : C L R LFE Lb Rb Lss Rss
Sampling rate                            : 48,0 kHz
Frame rate                               : 93,750 FPS (512 SPF)
Bit depth                                : 24 bits
Stream size                              : 6,81 GiB (19%)
Title                                    : Surround 7.1
Language                                 : English
Default                                  : Ne
Forced                                   : Ne

Audio #3
ID                                       : 4
Format                                   : DTS
Format/Info                              : Digital Theater Systems
Codec ID                                 : A_DTS
Duration                                 : 3 h 2 min
Bit rate                                 : 1 509 kb/s
Channel(s)                               : 6 kanály
Channel layout                           : C L R Ls Rs LFE
Sampling rate                            : 48,0 kHz
Frame rate                               : 93,750 FPS (512 SPF)
Bit depth                                : 24 bits
Stream size                              : 1,92 GiB (5%)
Title                                    : Surround 5.1
Language                                 : English
Default                                  : Ne
Forced                                   : Ano

Audio #4
ID                                       : 5
Format                                   : AC-3
Format/Info                              : Audio Coding 3
Commercial name                          : Dolby Digital
Codec ID                                 : A_AC3
Duration                                 : 3 h 2 min
Bit rate                                 : 192 kb/s
Channel(s)                               : 2 kanály
Channel layout                           : L R
Sampling rate                            : 48,0 kHz
Frame rate                               : 31,250 FPS (1536 SPF)
Stream size                              : 251 MiB (1%)
Title                                    : Stereo
Language                                 : English
Service kind                             : Complete Main
Default                                  : Ne
Forced                                   : Ano

Text #1
ID                                       : 6
Format                                   : PGS
Codec ID                                 : S_HDMV/PGS
Codec ID/Info                            : Picture based subtitle format used on BDs/HD-DVDs
Duration                                 : 3 h 0 min
Bit rate                                 : 519 b/s
Count of elements                        : 110
Stream size                              : 686 KiB (0%)
Language                                 : Czech
Default                                  : Ne
Forced                                   : Ne

Text #2
ID                                       : 7
Format                                   : PGS
Codec ID                                 : S_HDMV/PGS
Codec ID/Info                            : Picture based subtitle format used on BDs/HD-DVDs
Duration                                 : 3 h 1 min
Bit rate                                 : 21,8 kb/s
Count of elements                        : 4400
Stream size                              : 28,3 MiB (0%)
Language                                 : Czech
Default                                  : Ne
Forced                                   : Ne

Text #3
ID                                       : 8
Format                                   : PGS
Codec ID                                 : S_HDMV/PGS
Codec ID/Info                            : Picture based subtitle format used on BDs/HD-DVDs
Duration                                 : 3 h 1 min
Bit rate                                 : 26,9 kb/s
Count of elements                        : 4952
Stream size                              : 34,9 MiB (0%)
Language                                 : English
Default                                  : Ne
Forced                                   : Ne

Text #4
ID                                       : 9
Format                                   : UTF-8
Codec ID                                 : S_TEXT/UTF8
Codec ID/Info                            : UTF-8 Plain Text
Duration                                 : 3 h 0 min
Bit rate                                 : 0 b/s
Count of elements                        : 55
Stream size                              : 1,28 KiB (0%)
Language                                 : Czech
Default                                  : Ano
Forced                                   : Ano

Text #5
ID                                       : 10
Format                                   : UTF-8
Codec ID                                 : S_TEXT/UTF8
Codec ID/Info                            : UTF-8 Plain Text
Duration                                 : 3 h 1 min
Bit rate                                 : 43 b/s
Count of elements                        : 2200
Stream size                              : 57,4 KiB (0%)
Language                                 : Czech
Default                                  : Ne
Forced                                   : Ano

Menu
00:00:00.000                             : en:Chapter 01
00:10:11.861                             : en:Chapter 02
00:14:08.681                             : en:Chapter 03
00:17:27.254                             : en:Chapter 04
00:18:44.540                             : en:Chapter 05
00:23:16.561                             : en:Chapter 06
00:27:59.469                             : en:Chapter 07
00:36:04.871                             : en:Chapter 08
00:41:17.266                             : en:Chapter 09
00:46:30.829                             : en:Chapter 10
00:53:04.181                             : en:Chapter 11
00:58:07.650                             : en:Chapter 12
00:59:55.049                             : en:Chapter 13
01:10:42.154                             : en:Chapter 14
01:15:01.455                             : en:Chapter 15
01:18:52.602                             : en:Chapter 16
01:24:56.674                             : en:Chapter 17
01:30:34.429                             : en:Chapter 18
01:34:10.436                             : en:Chapter 19
01:37:24.463                             : en:Chapter 20
01:39:03.479                             : en:Chapter 21
01:41:40.803                             : en:Chapter 22
01:50:22.532                             : en:Chapter 23
01:52:59.773                             : en:Chapter 24
01:59:06.305                             : en:Chapter 25
02:03:57.513                             : en:Chapter 26
02:09:51.492                             : en:Chapter 27
02:23:21.384                             : en:Chapter 28
02:25:18.626                             : en:Chapter 29
02:26:31.115                             : en:Chapter 30
02:30:52.668                             : en:Chapter 31
02:33:00.421                             : en:Chapter 32
02:35:52.593                             : en:Chapter 33
02:46:51.209                             : en:Chapter 34
02:52:21.372                             : en:Chapter 35


On PC and everywhere else its ok and video working correctly.

Any suggestions? I've tried community Viera 2015 profile but it's not working too.