FAQ  •  Register  •  Login

Toshiba 32RV753B

<<

hansol123

Streaming enthusiast

Posts: 23

Joined: Mon Feb 28, 2011 7:13 pm

Post Tue Mar 01, 2011 12:57 pm

Toshiba 32RV753B

I have just purchased a Toshiba 32RV753B television and found that the picture was reduced in size when streaming programmes recorded from BBC HD recorded using NPVR and edited in Videoredo. I installed Serviio after a recommendation and first of all tested using a WDlive streamer all worked ok. I then connected the tv to my network and tried to play the same recording using the generic and then the Regaza profile in both instances the file was displayed as 0 bytes and would not play.

Can anybody assist with a profile that works for this TV.

Thanks for your assistance.
<<

Illico

User avatar

DLNA master

Posts: 4646

Joined: Fri Jul 23, 2010 8:08 am

Location: France

Post Tue Mar 01, 2011 1:17 pm

Re: Toshiba 32RV753B

Could you provide detailed logging and ffmpeg -i of your file ? (see my signature for link)
Illico
Sony 2010 KDL-46EX501 | BDP-S373 | SMP-N100 | Windows 8-i7 | Network DD HD-CE1.5TLU2 | Livebox2-UHD86 | ServiiDroid | ServiiGo | BubbleUPnP
Serviio beta tester - Moderator
<<

zip

User avatar

Serviio developer / Site Admin

Posts: 17157

Joined: Sat Oct 24, 2009 12:24 pm

Location: London, UK

Post Tue Mar 01, 2011 1:17 pm

Re: Toshiba 32RV753B

<<

hansol123

Streaming enthusiast

Posts: 23

Joined: Mon Feb 28, 2011 7:13 pm

Post Sun Mar 06, 2011 5:31 pm

Re: Toshiba 32RV753B

Please find log attached.

SD TS files play ok the problem is with HD TS files recorded from BBC HD .

Thanks for your help.
Attachments
serviio - log.rar
(25.22 KiB) Downloaded 272 times
<<

hansol123

Streaming enthusiast

Posts: 23

Joined: Mon Feb 28, 2011 7:13 pm

Post Sun Mar 13, 2011 8:40 am

Re: Toshiba 32RV753B

Can anybody help.

As stated above works fine with SD TS files but fails to recognise HD TS files recorded from BBCHD and edited in Videoredo..
<<

Cerberus

User avatar

DLNA master

Posts: 4114

Joined: Sun Jan 02, 2011 5:20 pm

Location: Reading, UK

Post Sun Mar 13, 2011 9:11 am

Re: Toshiba 32RV753B

wow there give the guys a chance to look at the log and they maybe able to help. They will post once they have looked into your issue for you.
Phil Bennett
Beta Tester Group
Wiki | FAQ

Samsung LE40C750 LCD | Samsung BD-C5900 | Sony PS3 | Windows 7 |
HowTo: Provide supported formats of a device HowTo: Record a new ticket on Bitbucket
HowTo: Provide details of a video file that doesn't play HowTo: Turn on detailed logging
<<

zip

User avatar

Serviio developer / Site Admin

Posts: 17157

Joined: Sat Oct 24, 2009 12:24 pm

Location: London, UK

Post Sun Mar 13, 2011 4:10 pm

Re: Toshiba 32RV753B

post results of ffmpeg -i for the file:
viewtopic.php?f=5&t=1123
<<

hansol123

Streaming enthusiast

Posts: 23

Joined: Mon Feb 28, 2011 7:13 pm

Post Sun Mar 13, 2011 6:23 pm

Re: Toshiba 32RV753B

Microsoft Windows [Version 6.1.7601]
Copyright (c) 2009 Microsoft Corporation. All rights reserved.

C:\Users\Taylor>cd "\Program Files (x86)\Serviio\lib

C:\Program Files (x86)\Serviio\lib>ffmpeg.exe -i "E:\recordedtv\hattie.ts"
FFmpeg version UNKNOWN, Copyright (c) 2000-2011 the FFmpeg developers
built on Jan 10 2011 21:46:22 with gcc 4.4.2
configuration: --enable-static --disable-shared --disable-shared --disable-ffp
lay --disable-ffserver --enable-memalign-hack --enable-libmp3lame --arch=x86 --e
nable-runtime-cpudetect --enable-w32threads --target-os=mingw32 --cross-prefix=i
686-mingw32-
libavutil 50.36. 0 / 50.36. 0
libavcore 0.16. 0 / 0.16. 0
libavcodec 52.108. 0 / 52.108. 0
libavformat 52.92. 0 / 52.92. 0
libavdevice 52. 2. 3 / 52. 2. 3
libavfilter 1.72. 0 / 1.72. 0
libswscale 0.12. 0 / 0.12. 0
E:\recordedtv\hattie.ts: No such file or directory

C:\Program Files (x86)\Serviio\lib>^V
<<

hansol123

Streaming enthusiast

Posts: 23

Joined: Mon Feb 28, 2011 7:13 pm

Post Sun Mar 13, 2011 6:31 pm

Re: Toshiba 32RV753B

Sorry for the above 2nd attempt

Microsoft Windows [Version 6.1.7601]
Copyright (c) 2009 Microsoft Corporation. All rights reserved.




C:\Program Files (x86)\Serviio\lib>ffmpeg.exe -i "E:\Recorded TV\hattie.ts"
FFmpeg version UNKNOWN, Copyright (c) 2000-2011 the FFmpeg developers
built on Jan 10 2011 21:46:22 with gcc 4.4.2
configuration: --enable-static --disable-shared --disable-shared --disable-ffp
lay --disable-ffserver --enable-memalign-hack --enable-libmp3lame --arch=x86 --e
nable-runtime-cpudetect --enable-w32threads --target-os=mingw32 --cross-prefix=i
686-mingw32-
libavutil 50.36. 0 / 50.36. 0
libavcore 0.16. 0 / 0.16. 0
libavcodec 52.108. 0 / 52.108. 0
libavformat 52.92. 0 / 52.92. 0
libavdevice 52. 2. 3 / 52. 2. 3
libavfilter 1.72. 0 / 1.72. 0
libswscale 0.12. 0 / 0.12. 0
[mpegts @ 010abc30] max_analyze_duration reached
Input #0, mpegts, from 'E:\Recorded TV\hattie.ts':
Duration: 01:24:58.92, start: 0.195033, bitrate: 5458 kb/s
Program 1
Stream #0.0[0x157c]: Video: h264, yuv420p, 1440x1080 [PAR 4:3 DAR 16:9], 30
fps, 25 tbr, 90k tbn, 50 tbc
Stream #0.1[0x157d](eng): Audio: ac3, 48000 Hz, stereo, s16, 192 kb/s
Stream #0.2[0x157f](eng): Subtitle: [6][0][0][0] / 0x0006
Stream #0.3[0x1580](eng): Subtitle: dvbsub
At least one output file must be specified

C:\Program Files (x86)\Serviio\lib>
<<

zip

User avatar

Serviio developer / Site Admin

Posts: 17157

Joined: Sat Oct 24, 2009 12:24 pm

Location: London, UK

Post Sun Mar 13, 2011 7:23 pm

Re: Toshiba 32RV753B

Can you see this file when yo're browsing on the TV and only get the error when attempting to play?
<<

hansol123

Streaming enthusiast

Posts: 23

Joined: Mon Feb 28, 2011 7:13 pm

Post Sun Mar 13, 2011 7:46 pm

Re: Toshiba 32RV753B

Yes I can see the SD and HD files but the HD TS files do not have a size.
<<

hansol123

Streaming enthusiast

Posts: 23

Joined: Mon Feb 28, 2011 7:13 pm

Post Sat Mar 19, 2011 8:43 pm

Re: Toshiba 32RV753B

Do you require further information ???

Return to Toshiba

Who is online

Users browsing this forum: No registered users and 1 guest

Powered by phpBB © 2000, 2002, 2005, 2007 phpBB Group.
Designed by ST Software for PTF.