FAQ  •  Register  •  Login

Artist and track info from online audio sources

<<

as400jockey

Serviio newbie

Posts: 3

Joined: Mon Oct 22, 2018 10:26 pm

Post Mon Nov 12, 2018 6:57 pm

Artist and track info from online audio sources

I use Serviio to feed my Netgear MP101s. Those boxes have been around since before internet radio... but they still work great for music. When I feed them my ripped CD library, the display includes the artist and track information. When fed online feeds (either from Serviio or previously from Twonky) I see only the station name and the elapsed time since I tuned to that station.

If I tune into a stream using Winamp, I see the artise, genre, song name, etc.

Example - http://s1.nexuscast.com:8043/

It would be great if Serviio could pass along the artist and track info...
<<

zip

User avatar

Serviio developer / Site Admin

Posts: 17053

Joined: Sat Oct 24, 2009 12:24 pm

Location: London, UK

Post Wed Nov 14, 2018 3:01 pm

Re: Artist and track info from online audio sources

can you post result of

  Code:
ffmpeg -i "http://s1.nexuscast.com:8043/"
<<

srs

Serviio newbie

Posts: 1

Joined: Sun May 26, 2019 7:47 am

Post Sun May 26, 2019 8:03 am

Re: Artist and track info from online audio sources

I would also like to be able to see artist and track info when streaming from internet radio stations.

Here is the ffmpeg output as requested above, plus the output for one of the stations I use:

  Code:
F:\Temp\ffmpeg-4.1-win64-static\bin>ffmpeg -i "http://s1.nexuscast.com:8043/"
ffmpeg version 4.1 Copyright (c) 2000-2018 the FFmpeg developers
  built with gcc 8.2.1 (GCC) 20181017
  configuration: --enable-gpl --enable-version3 --enable-sdl2 --enable-fontconfig --enable-gnutls --enable-iconv --enable-libass --enable-libbluray --enable-libfreetype --enable-libmp3lame --enable-li
bopencore-amrnb --enable-libopencore-amrwb --enable-libopenjpeg --enable-libopus --enable-libshine --enable-libsnappy --enable-libsoxr --enable-libtheora --enable-libtwolame --enable-libvpx --enable-l
ibwavpack --enable-libwebp --enable-libx264 --enable-libx265 --enable-libxml2 --enable-libzimg --enable-lzma --enable-zlib --enable-gmp --enable-libvidstab --enable-libvorbis --enable-libvo-amrwbenc -
-enable-libmysofa --enable-libspeex --enable-libxvid --enable-libaom --enable-libmfx --enable-amf --enable-ffnvcodec --enable-cuvid --enable-d3d11va --enable-nvenc --enable-nvdec --enable-dxva2 --enab
le-avisynth
  libavutil      56. 22.100 / 56. 22.100
  libavcodec     58. 35.100 / 58. 35.100
  libavformat    58. 20.100 / 58. 20.100
  libavdevice    58.  5.100 / 58.  5.100
  libavfilter     7. 40.101 /  7. 40.101
  libswscale      5.  3.100 /  5.  3.100
  libswresample   3.  3.100 /  3.  3.100
  libpostproc    55.  3.100 / 55.  3.100
Input #0, mp3, from 'http://s1.nexuscast.com:8043/':
  Metadata:
    icy-notice1     : <BR>This stream requires <a href="http://www.winamp.com">Winamp</a><BR>
    icy-notice2     : SHOUTcast DNAS/posix(linux x64) v2.5.5.733<BR>
    icy-name        : Ben Vee Roadhouse Blues
    icy-genre       : Blues, Electric Blues, Blues
    icy-br          : 128
    icy-sr          : 44100
    icy-url         : http://www.shoutcast.com
    icy-pub         : 1
    StreamTitle     : Johnny & The Headhunters - Body And Fender Man
  Duration: N/A, start: 0.000000, bitrate: 128 kb/s
    Stream #0:0: Audio: mp3, 44100 Hz, stereo, fltp, 128 kb/s
At least one output file must be specified

F:\Temp\ffmpeg-4.1-win64-static\bin>ffmpeg -i "http://mp3-128.streamthejazzgroove.com/;stream.mp3"
ffmpeg version 4.1 Copyright (c) 2000-2018 the FFmpeg developers
  built with gcc 8.2.1 (GCC) 20181017
  configuration: --enable-gpl --enable-version3 --enable-sdl2 --enable-fontconfig --enable-gnutls --enable-iconv --enable-libass --enable-libbluray --enable-libfreetype --enable-libmp3lame --enable-li
bopencore-amrnb --enable-libopencore-amrwb --enable-libopenjpeg --enable-libopus --enable-libshine --enable-libsnappy --enable-libsoxr --enable-libtheora --enable-libtwolame --enable-libvpx --enable-l
ibwavpack --enable-libwebp --enable-libx264 --enable-libx265 --enable-libxml2 --enable-libzimg --enable-lzma --enable-zlib --enable-gmp --enable-libvidstab --enable-libvorbis --enable-libvo-amrwbenc -
-enable-libmysofa --enable-libspeex --enable-libxvid --enable-libaom --enable-libmfx --enable-amf --enable-ffnvcodec --enable-cuvid --enable-d3d11va --enable-nvenc --enable-nvdec --enable-dxva2 --enab
le-avisynth
  libavutil      56. 22.100 / 56. 22.100
  libavcodec     58. 35.100 / 58. 35.100
  libavformat    58. 20.100 / 58. 20.100
  libavdevice    58.  5.100 / 58.  5.100
  libavfilter     7. 40.101 /  7. 40.101
  libswscale      5.  3.100 /  5.  3.100
  libswresample   3.  3.100 /  3.  3.100
  libpostproc    55.  3.100 / 55.  3.100
Input #0, mp3, from 'http://mp3-128.streamthejazzgroove.com/;stream.mp3':
  Metadata:
    icy-notice1     : <BR>This stream requires <a href="http://www.winamp.com">Winamp</a><BR>
    icy-notice2     : SHOUTcast DNAS/posix(linux x64) v2.5.5.733<BR>
    icy-name        : JAZZGROOVE.org - LAID-BACK JAZZ - The Jazz Groove. Ad Free. (West)
    icy-genre       : Jazz
    icy-br          : 128
    icy-sr          : 44100
    icy-url         : http://jazzgroove.org
    icy-pub         : 1
    StreamTitle     : Shelly Berg - Estate
  Duration: N/A, start: 0.000000, bitrate: 128 kb/s
    Stream #0:0: Audio: mp3, 44100 Hz, stereo, fltp, 128 kb/s
At least one output file must be specified



So for me it would be great if I could see the StreamTitle property from the Metadata, and obviously have it update as it changes.

Thanks.

Stephen
<<

Paul C

DLNA master

Posts: 190

Joined: Wed Feb 17, 2016 3:46 pm

Location: Essex, UK

Post Sat Sep 07, 2019 11:16 pm

Re: Artist and track info from online audio sources

srs wrote:I would also like to be able to see artist and track info when streaming from internet radio stations.

It would be a very nice facility but it may depend on several factors to work properly.
1. Do all stations follow the same standard.
2. Are all devices and Apps designed to access/handle/show the resulting information e.g. in my case BubbleUPnP.

Many station websites show the current playing and recently played information. By making the stations "Favourites" then with two clicks on my tablet I can see the info on sites such as JB Radio-2, Venice Classic Radio and until recently The Jazz Groove (they have changed their website and messed it up - I have reported the issue).
But this facility would certainly be much better.
There was an earlier topic/suggestion/request on this issue.
Serviio PRO v2.0, DBpoweramp & Asset UPnP (registered), Acer Aspire One netbook, HP Elitebook, Windows 10 Pro, Denon DNP-730AE, NEET AirstreamPro renderer, Naim NAC72/NAP140 (x2), Celestion Ditton 25 and Spendor A5 speakers, WD TV Media Player (x2), Panasonic Blu-ray DMP-BDT360, Panasonic TV, Amazon Fire 7 HDX, BubbleUPnP app, Mezzmo Android App, Qobuz Studio Hi-Res streaming.

Return to Feature requests

Who is online

Users browsing this forum: No registered users and 6 guests

Powered by phpBB © 2000, 2002, 2005, 2007 phpBB Group.
Designed by ST Software for PTF.