FAQ  •  Register  •  Login

MTS (MPEG4) Files playable

<<

Daku123

Serviio newbie

Posts: 6

Joined: Sun Jun 20, 2010 3:43 pm

Post Sun Jun 20, 2010 3:45 pm

MTS (MPEG4) Files playable

Hello,

i need the support of MTS (MPEG4) Files from my Digicam.

Thanks.
<<

Daku123

Serviio newbie

Posts: 6

Joined: Sun Jun 20, 2010 3:43 pm

Post Sun Jun 20, 2010 5:54 pm

Re: MTS (MPEG4) Files playable

The Output from 'ffmpeg -i <mtsfilename>' is...

FFmpeg version SVN-r23012, Copyright (c) 2000-2010 the FFmpeg developers
built on May 3 2010 19:05:24 with gcc 3.4.5 (mingw-vista special r3)
configuration: --enable-static --disable-shared --disable-ffplay --disable-ffs
erver --enable-memalign-hack --enable-libmp3lame --enable-w32threads --extra-ldf
lags=-L/static/lib --extra-cflags=-I/static/include
libavutil 50.15. 0 / 50.15. 0
libavcodec 52.66. 0 / 52.66. 0
libavformat 52.62. 0 / 52.62. 0
libavdevice 52. 2. 0 / 52. 2. 0
libswscale 0.10. 0 / 0.10. 0
[mpegts @ 003dcf60]MAX_READ_SIZE:5000000 reached

Seems stream 0 codec frame rate differs from container frame rate: 50.00 (50/1)
-> 50.00 (50/1)
Input #0, mpegts, from '<mtsfilename>':
Duration: 00:05:52.03, start: 0.366667, bitrate: 13954 kb/s
Program 1
Stream #0.0[0x1011]: Video: h264, yuv420p, 1920x1080 [PAR 1:1 DAR 16:9], 50
fps, 50 tbr, 90k tbn, 50 tbc
Stream #0.1[0x1100]: Audio: ac3, 48000 Hz, stereo, s16, 192 kb/s
At least one output file must be specified
<<

zip

User avatar

Serviio developer / Site Admin

Posts: 17154

Joined: Sat Oct 24, 2009 12:24 pm

Location: London, UK

Post Sun Jun 20, 2010 6:52 pm

Re: MTS (MPEG4) Files playable

That should be supported by Serviio. Up to your player if it supports this file.
<<

Daku123

Serviio newbie

Posts: 6

Joined: Sun Jun 20, 2010 3:43 pm

Post Sun Jun 20, 2010 7:46 pm

Re: MTS (MPEG4) Files playable

I have a Sony TV with DLNA Client.

With another DNLA Server, the TV shows the .mts videos.
With Serviio, the TV show with Videos-->Folders--> <path to file> --> 'not elements available...'

Jpegs und mp3s works perfectly.

Supported media files
* Video: MPEG-1 (.mpg, .mpeg), MPEG-2 PS (.mpg, .mpeg, vob, mod), MPEG-2 TS (.ts, .m2ts), MPEG-4 (.mp4, m4v, mov), AVI (.avi, .divx), Windows Media Video (.wmv, .asf), Matroska (.mkv)


but no .mts file
<<

zip

User avatar

Serviio developer / Site Admin

Posts: 17154

Joined: Sat Oct 24, 2009 12:24 pm

Location: London, UK

Post Mon Jun 21, 2010 8:26 am

Re: MTS (MPEG4) Files playable

try to rename the file to .ts
<<

Daku123

Serviio newbie

Posts: 6

Joined: Sun Jun 20, 2010 3:43 pm

Post Tue Jun 22, 2010 5:39 am

Re: MTS (MPEG4) Files playable

No chance :(

.ts, .m4v or mp4
<<

zip

User avatar

Serviio developer / Site Admin

Posts: 17154

Joined: Sat Oct 24, 2009 12:24 pm

Location: London, UK

Post Tue Jun 22, 2010 9:04 am

Re: MTS (MPEG4) Files playable

What is your player? The file is definitely supported by Serviio. Also, check serviio.log to see if the file has been added to your library.
<<

Daku123

Serviio newbie

Posts: 6

Joined: Sun Jun 20, 2010 3:43 pm

Post Tue Jun 22, 2010 6:16 pm

Re: MTS (MPEG4) Files playable

The log-File shows only the images. :roll:

Can i view the database with the files?

The TV set is a Sony KDL-52V5800.
<<

zip

User avatar

Serviio developer / Site Admin

Posts: 17154

Joined: Sat Oct 24, 2009 12:24 pm

Location: London, UK

Post Tue Jun 22, 2010 11:01 pm

Re: MTS (MPEG4) Files playable

Try turning on detailed log, click Force refresh on Library tab in the console and let it work for a few minutes. Post the log afterwards.
<<

Daku123

Serviio newbie

Posts: 6

Joined: Sun Jun 20, 2010 3:43 pm

Post Fri Sep 17, 2010 7:22 am

Re: MTS (MPEG4) Files playable

Hi Zip,
thanks for the new 0.42 version.

In this version i can rename the .mts files to mp4, avi oder mpg and my Sony Bravia TV can play the files.
Can you implement the indexing of mts files?

Return to Feature requests

Who is online

Users browsing this forum: No registered users and 4 guests

Powered by phpBB © 2000, 2002, 2005, 2007 phpBB Group.
Designed by ST Software for PTF.