FAQ  •  Register  •  Login

Kelby TV (Photoshop)

Moderator: martyn

<<

DownUnder

Serviio newbie

Posts: 7

Joined: Wed Mar 30, 2011 11:15 pm

Post Thu Sep 29, 2011 12:29 pm

Kelby TV (Photoshop)

These worked for me. Photoshop tutorials.

Photoshop User TV: http://kelbytv.com/photoshopusertv/feed/rss/

Photoshop Killer Tips: http://kelbytv.com/photoshopkillertips/feed/rss/

Larrys Cheap Shots: http://kelbytv.com/cheapshots/feed/rss/

Lightroom Killer Tips: http://kelbytv.com/lightroomkillertips/feed/rss/

Cheers
<<

Phil.cdtpixel

Serviio lover

Posts: 50

Joined: Tue Sep 27, 2011 9:02 am

Location: Aix en Provence (France)

Post Tue Oct 04, 2011 8:53 am

Re: Kelby TV (Photoshop)

Thanks

For me :

Photoshop User TV: http://kelbytv.com/photoshopusertv/feed/rss/ <-- don't work

Photoshop Killer Tips: http://kelbytv.com/photoshopkillertips/feed/rss/ <-- work perfectly

This is strange and i can't figure out what could be the problem.....

Thanks for help
<<

moltra

DLNA master

Posts: 1871

Joined: Thu Mar 24, 2011 11:00 pm

Location: Ohio USA

Post Tue Oct 04, 2011 11:59 am

Re: Kelby TV (Photoshop)

enable detailed logging (see signature) and post it here and maybe we can help find out why it did not work.
Mark
Beta Tester Group
http://www.serviidb.com Online media resource repository

Netgear EVA2000 | Samsung BD-D5300 | XBOX 360 | Windows 7 | Mint Debian 12 | Raxz Maxx
HowTo: Provide supported formats of a device HowTo: Record a new ticket on Bitbucket
HowTo: Provide details of a video file that doesn't play HowTo: Turn on detailed logging
<<

Phil.cdtpixel

Serviio lover

Posts: 50

Joined: Tue Sep 27, 2011 9:02 am

Location: Aix en Provence (France)

Post Thu Oct 27, 2011 2:51 pm

Re: Kelby TV (Photoshop)

ok here is the problem :

2011-10-27 16:34:20,025 WARN [FeedUpdaterThread] Failed to retrieve feed item information for http://media.kelbymediagroup.com/switch ... de-282.mp4. It might not play.
java.io.IOException: org.serviio.library.local.metadata.extractor.InvalidMediaFormatException: Unknown video file type.
at org.serviio.library.online.metadata.FeedUpdaterThread.updateLazyLoadedProperties(FeedUpdaterThread.java:188)
at org.serviio.library.online.metadata.FeedUpdaterThread.run(FeedUpdaterThread.java:93)
Caused by: org.serviio.library.local.metadata.extractor.InvalidMediaFormatException: Unknown video file type.
at org.serviio.library.metadata.FFmpegMetadataRetriever.validateCodecsFound(FFmpegMetadataRetriever.java:318)
at org.serviio.library.metadata.FFmpegMetadataRetriever.retrieveMetadata(FFmpegMetadataRetriever.java:68)
at org.serviio.library.online.metadata.FeedUpdaterThread.updateLazyLoadedProperties(FeedUpdaterThread.java:169)
<<

zip

User avatar

Serviio developer / Site Admin

Posts: 16937

Joined: Sat Oct 24, 2009 12:24 pm

Location: London, UK

Post Thu Oct 27, 2011 3:55 pm

Re: Kelby TV (Photoshop)

maybe it timed out. can you post

  Code:
ffmpeg -i "http://media.kelbymediagroup.com/switch/video/photoshopuser-tv-episode-282.mp4"
<<

Phil.cdtpixel

Serviio lover

Posts: 50

Joined: Tue Sep 27, 2011 9:02 am

Location: Aix en Provence (France)

Post Thu Oct 27, 2011 4:33 pm

Re: Kelby TV (Photoshop)

here is the result :

C:\Program Files (x86)\Serviio\lib>ffmpeg -i "http://media.kelbymediagroup.com/s
witch/video/photoshopuser-tv-episode-282.mp4"
ffmpeg version N-31480-g8bc3a48, Copyright (c) 2000-2011 the FFmpeg developers
built on Jul 14 2011 23:37:53 with gcc 4.4.2
configuration: --enable-static --disable-shared --disable-ffplay --disable-ffs
erver --enable-memalign-hack --enable-libmp3lame --enable-librtmp --extra-libs='
-lrtmp -lpolarssl -lws2_32 -lwinmm' --arch=x86 --enable-runtime-cpudetect --enab
le-pthreads --target-os=mingw32 --cross-prefix=i686-mingw32- --pkg-config=pkg-co
nfig
libavutil 51. 11. 0 / 51. 11. 0
libavcodec 53. 8. 0 / 53. 8. 0
libavformat 53. 6. 0 / 53. 6. 0
libavdevice 53. 2. 0 / 53. 2. 0
libavfilter 2. 25. 0 / 2. 25. 0
libswscale 2. 0. 0 / 2. 0. 0
[mov,mp4,m4a,3gp,3g2,mj2 @ 01268b40] max_analyze_duration 5000000 reached at 501
5510

Seems stream 1 codec frame rate differs from container frame rate: 59.94 (60000/
1001) -> 29.97 (2997/100)
Input #0, mov,mp4,m4a,3gp,3g2,mj2, from 'http://media.kelbymediagroup.com/switch
/video/photoshopuser-tv-episode-282.mp4':
Metadata:
major_brand : mp42
minor_version : 1
compatible_brands: isommp41avc1
creation_time : 2011-09-28 16:59:47
comment : ┬® Kelby Media Group. All Rights Reserved
comment-eng : ┬® Kelby Media Group. All Rights Reserved
copyright : kelbymediagroup.com
copyright-eng : kelbymediagroup.com
Duration: 00:28:38.28, start: 0.000000, bitrate: 2339 kb/s
Stream #0.0(eng): Audio: aac, 44100 Hz, stereo, s16, 127 kb/s
Metadata:
creation_time : 2011-09-28 16:59:47
Stream #0.1(eng): Video: h264 (Baseline), yuv420p, 640x360 [PAR 1:1 DAR 16:9
], 1002 kb/s, 29.97 fps, 29.97 tbr, 2997 tbn, 59.94 tbc
Metadata:
creation_time : 2011-09-28 16:59:47
Stream #0.2(eng): Data: rtp / 0x20707472, 1070 kb/s
Metadata:
creation_time : 2011-09-28 16:59:47
Stream #0.3(eng): Data: rtp / 0x20707472, 134 kb/s
Metadata:
creation_time : 2011-09-28 16:59:47
Stream #0.4(eng): Data: mp4s / 0x7334706D, 0 kb/s
Metadata:
creation_time : 2011-09-28 16:59:47
Stream #0.5(eng): Data: mp4s / 0x7334706D, 0 kb/s
Metadata:
creation_time : 2011-09-28 16:59:47
At least one output file must be specified

C:\Program Files (x86)\Serviio\lib>
<<

Phil.cdtpixel

Serviio lover

Posts: 50

Joined: Tue Sep 27, 2011 9:02 am

Location: Aix en Provence (France)

Post Thu Oct 27, 2011 4:35 pm

Re: Kelby TV (Photoshop)

strange thing is that the photoshopusertv work using blip.tv and the groovy plugin for blipTV ... (http://blip.tv/photoshop-user-tv/rss)

on blip.tv : photoshopuser-tv-episode-282 works perfectly :?
<<

jhb50

DLNA master

Posts: 2856

Joined: Thu Jun 30, 2011 9:32 pm

Post Thu Oct 27, 2011 4:45 pm

Re: Kelby TV (Photoshop)

Deleted
Last edited by jhb50 on Fri Oct 28, 2011 1:13 pm, edited 1 time in total.
<<

zip

User avatar

Serviio developer / Site Admin

Posts: 16937

Joined: Sat Oct 24, 2009 12:24 pm

Location: London, UK

Post Thu Oct 27, 2011 4:55 pm

Re: Kelby TV (Photoshop)

That FFmpeg out looks good, are you still getting the same error? Maybe it was just temporary network issue.
<<

Phil.cdtpixel

Serviio lover

Posts: 50

Joined: Tue Sep 27, 2011 9:02 am

Location: Aix en Provence (France)

Post Thu Oct 27, 2011 5:00 pm

Re: Kelby TV (Photoshop)

yes Zip always the same errors for a couple of weeks ... :(

2011-10-27 19:04:29,609 WARN [FeedUpdaterThread] Failed to retrieve feed item information for http://media.kelbymediagroup.com/switch ... de-282.mp4. It might not play.
java.io.IOException: org.serviio.library.local.metadata.extractor.InvalidMediaFormatException: Unknown video file type.
at org.serviio.library.online.metadata.FeedUpdaterThread.updateLazyLoadedProperties(FeedUpdaterThread.java:188)
at org.serviio.library.online.metadata.FeedUpdaterThread.run(FeedUpdaterThread.java:93)
Caused by: org.serviio.library.local.metadata.extractor.InvalidMediaFormatException: Unknown video file type.
at org.serviio.library.metadata.FFmpegMetadataRetriever.validateCodecsFound(FFmpegMetadataRetriever.java:318)
at org.serviio.library.metadata.FFmpegMetadataRetriever.retrieveMetadata(FFmpegMetadataRetriever.java:68)
at org.serviio.library.online.metadata.FeedUpdaterThread.updateLazyLoadedProperties(FeedUpdaterThread.java:169)
<<

zip

User avatar

Serviio developer / Site Admin

Posts: 16937

Joined: Sat Oct 24, 2009 12:24 pm

Location: London, UK

Post Thu Oct 27, 2011 5:07 pm

Re: Kelby TV (Photoshop)

were there any time delays when you run the ffmpeg -i command?
<<

Phil.cdtpixel

Serviio lover

Posts: 50

Joined: Tue Sep 27, 2011 9:02 am

Location: Aix en Provence (France)

Post Thu Oct 27, 2011 5:08 pm

Re: Kelby TV (Photoshop)

yes about 10-20 seconds...

perhaps more
<<

Phil.cdtpixel

Serviio lover

Posts: 50

Joined: Tue Sep 27, 2011 9:02 am

Location: Aix en Provence (France)

Post Thu Oct 27, 2011 5:16 pm

Re: Kelby TV (Photoshop)

this one works on Serviio :

C:\Program Files (x86)\Serviio\lib>ffmpeg -i "http://blip.tv/file/get/Photoshopu
sertv-PhotoshopUserTVEpisode282October042011368.mp4"
ffmpeg version N-31480-g8bc3a48, Copyright (c) 2000-2011 the FFmpeg developers
built on Jul 14 2011 23:37:53 with gcc 4.4.2
configuration: --enable-static --disable-shared --disable-ffplay --disable-ffs
erver --enable-memalign-hack --enable-libmp3lame --enable-librtmp --extra-libs='
-lrtmp -lpolarssl -lws2_32 -lwinmm' --arch=x86 --enable-runtime-cpudetect --enab
le-pthreads --target-os=mingw32 --cross-prefix=i686-mingw32- --pkg-config=pkg-co
nfig
libavutil 51. 11. 0 / 51. 11. 0
libavcodec 53. 8. 0 / 53. 8. 0
libavformat 53. 6. 0 / 53. 6. 0
libavdevice 53. 2. 0 / 53. 2. 0
libavfilter 2. 25. 0 / 2. 25. 0
libswscale 2. 0. 0 / 2. 0. 0
[mov,mp4,m4a,3gp,3g2,mj2 @ 003c8b60] max_analyze_duration 5000000 reached at 501
5510

Seems stream 1 codec frame rate differs from container frame rate: 59.94 (60000/
1001) -> 29.97 (2997/100)
Input #0, mov,mp4,m4a,3gp,3g2,mj2, from 'http://blip.tv/file/get/Photoshopusertv
-PhotoshopUserTVEpisode282October042011368.mp4':
Metadata:
major_brand : mp42
minor_version : 1
compatible_brands: isommp41avc1
creation_time : 2011-09-28 16:59:47
comment : ┬® Kelby Media Group. All Rights Reserved
comment-eng : ┬® Kelby Media Group. All Rights Reserved
copyright : kelbymediagroup.com
copyright-eng : kelbymediagroup.com
Duration: 00:28:38.28, start: 0.000000, bitrate: 2339 kb/s
Stream #0.0(eng): Audio: aac, 44100 Hz, stereo, s16, 127 kb/s
Metadata:
creation_time : 2011-09-28 16:59:47
Stream #0.1(eng): Video: h264 (Baseline), yuv420p, 640x360 [PAR 1:1 DAR 16:9
], 1002 kb/s, 29.97 fps, 29.97 tbr, 2997 tbn, 59.94 tbc
Metadata:
creation_time : 2011-09-28 16:59:47
Stream #0.2(eng): Data: rtp / 0x20707472, 1070 kb/s
Metadata:
creation_time : 2011-09-28 16:59:47
Stream #0.3(eng): Data: rtp / 0x20707472, 134 kb/s
Metadata:
creation_time : 2011-09-28 16:59:47
Stream #0.4(eng): Data: mp4s / 0x7334706D, 0 kb/s
Metadata:
creation_time : 2011-09-28 16:59:47
Stream #0.5(eng): Data: mp4s / 0x7334706D, 0 kb/s
Metadata:
creation_time : 2011-09-28 16:59:47
At least one output file must be specified
<<

zip

User avatar

Serviio developer / Site Admin

Posts: 16937

Joined: Sat Oct 24, 2009 12:24 pm

Location: London, UK

Post Fri Oct 28, 2011 12:54 pm

Re: Kelby TV (Photoshop)

Ok, I'll check what timeout value I have set for the online call, it might be timing out.

Edit: I'm using 30 secs, can you measure if it's more than that?
<<

Phil.cdtpixel

Serviio lover

Posts: 50

Joined: Tue Sep 27, 2011 9:02 am

Location: Aix en Provence (France)

Post Fri Oct 28, 2011 3:08 pm

Re: Kelby TV (Photoshop)

Ok i mesure the ffmeg command duration : 43 sec !
So it's seems to be a time out problem...
<<

zip

User avatar

Serviio developer / Site Admin

Posts: 16937

Joined: Sat Oct 24, 2009 12:24 pm

Location: London, UK

Post Fri Oct 28, 2011 3:17 pm

Re: Kelby TV (Photoshop)

Ouch, it takes 4 sec for me :-) Is your internet generally slow?
<<

Phil.cdtpixel

Serviio lover

Posts: 50

Joined: Tue Sep 27, 2011 9:02 am

Location: Aix en Provence (France)

Post Fri Oct 28, 2011 3:29 pm

Re: Kelby TV (Photoshop)

no it's not slow : download 2Mo/s - upload 256ko/s ...

Edit : strange thing is that the file that works take the same time for the ffmpeg command : about 45 sec !!!
ReEdit : in FFmpeg result : "[mov,mp4,m4a,3gp,3g2,mj2 @ 01268b40] max_analyze_duration 5000000 reached at 501
5510" --> time out ??
<<

jhb50

DLNA master

Posts: 2856

Joined: Thu Jun 30, 2011 9:32 pm

Post Sat Oct 29, 2011 4:18 am

Re: Kelby TV (Photoshop)

Here's the log:
  Code:
2011-10-28 23:42:06,570 DEBUG [FFMPEGWrapper] Invoking FFmpeg to transcode video file: http://media.kelbymediagroup.com/switch/video/photoshopuser-tv-episode-283.mp4
2011-10-28 23:42:06,570 DEBUG [ProcessExecutor] Starting C:\Program Files (x86)\Serviio\bin\\..\lib/ffmpeg.exe -i http://media.kelbymediagroup.com/switch/video/photoshopuser-tv-episode-283.mp4 -y -vcodec copy -vbsf h264_mp4toannexb -copyts -acodec ac3 -ab 384k -ac 2 -map 0:1 -map 0:0 -sn -f mpegts C:\windows\TEMP\Serviio\transcoding-temp-1000000000640002-MPEG2TS.stf
2011-10-28 23:42:06,695 DEBUG [OnlineRepositoryDAOImpl] Reading all OnlineRepositories
2011-10-28 23:42:06,697 DEBUG [OnlineRepositoryDAOImpl] Reading an OnlineRepository (id = 64)
2011-10-28 23:42:06,697 DEBUG [FeedCacheDecorator] Found entry in the cache (online_feeds), returning it
2011-10-28 23:42:06,698 DEBUG [OnlineRepositoryDAOImpl] Reading an OnlineRepository (id = 65)
2011-10-28 23:42:06,698 DEBUG [FeedCacheDecorator] Found entry in the cache (online_feeds), returning it
2011-10-28 23:42:08,458 DEBUG [DiscoveryAdvertisementNotifier] Multicasting SSDP alive using interface net4 (Realtek RTL8191SE Wireless LAN 802.11n PCI-E NIC) and address 192.168.1.10, timeout = 0
2011-10-28 23:42:08,459 DEBUG [DiscoveryAdvertisementNotifier] Sending 6 'alive' messages describing device 8dee68fe-0370-3fc8-a5f5-ae4a1fb10a65
2011-10-28 23:42:10,259 DEBUG [DiscoveryAdvertisementNotifier] Will advertise again in 00:01:20
2011-10-28 23:42:31,917 ERROR [ResourceTransportRequestHandler] Error while processing resource, sending back 500 error. Message: Transcoded file 'C:\windows\TEMP\Serviio\transcoding-temp-1000000000640002-MPEG2TS.stf' cannot be found, FFmpeg execution probably failed
java.io.IOException: Transcoded file 'C:\windows\TEMP\Serviio\transcoding-temp-1000000000640002-MPEG2TS.stf' cannot be found, FFmpeg execution probably failed
   at org.serviio.delivery.resource.AbstractTranscodingDeliveryEngine.retrieveTranscodedResource(AbstractTranscodingDeliveryEngine.java:115)
   at org.serviio.delivery.resource.AbstractDeliveryEngine.deliver(AbstractDeliveryEngine.java:93)
   at org.serviio.delivery.MediaResourceRetrievalStrategy.retrieveResource(MediaResourceRetrievalStrategy.java:121)
   at org.serviio.upnp.webserver.ResourceTransportRequestHandler.handleRequest(ResourceTransportRequestHandler.java:116)
   at org.serviio.upnp.webserver.AbstractRequestHandler.handle(AbstractRequestHandler.java:54)
   at org.apache.http.protocol.HttpService.doService(HttpService.java:293)
   at org.serviio.upnp.webserver.ServiioHttpService.doService(ServiioHttpService.java:58)
   at org.apache.http.protocol.HttpService.handleRequest(HttpService.java:212)
   at org.serviio.upnp.webserver.WebServer$WorkerThread.run(WebServer.java:187)


The transcoded .stf has a zero length but the ffmpeg command works fine when issued from a command prompt but it takes a long time to start, so it looks like Serviio is timing out. The source file is a few hundred megs.

Here' the output from the ffmpeg transcode command:
  Code:
C:\Users\John>"C:\Program Files (x86)\Serviio\bin\\..\lib/ffmpeg.exe" -i http://
media.kelbymediagroup.com/switch/video/photoshopuser-tv-episode-282.mp4 -y -vcod
ec copy -vbsf h264_mp4toannexb -copyts -acodec ac3 -ab 384k -ac 2 -map 0:1 -map
0:0 -sn -f mpegts C:\windows\TEMP\Serviio\transcoding-temp-1000000000640003-MPEG
2TS.stf
ffmpeg version N-31480-g8bc3a48, Copyright (c) 2000-2011 the FFmpeg developers
  built on Jul 14 2011 23:37:53 with gcc 4.4.2
  configuration: --enable-static --disable-shared --disable-ffplay --disable-ffs
erver --enable-memalign-hack --enable-libmp3lame --enable-librtmp --extra-libs='
-lrtmp -lpolarssl -lws2_32 -lwinmm' --arch=x86 --enable-runtime-cpudetect --enab
le-pthreads --target-os=mingw32 --cross-prefix=i686-mingw32- --pkg-config=pkg-co
nfig
  libavutil    51. 11. 0 / 51. 11. 0
  libavcodec   53.  8. 0 / 53.  8. 0
  libavformat  53.  6. 0 / 53.  6. 0
  libavdevice  53.  2. 0 / 53.  2. 0
  libavfilter   2. 25. 0 /  2. 25. 0
  libswscale    2.  0. 0 /  2.  0. 0
[mov,mp4,m4a,3gp,3g2,mj2 @ 014fc240] max_analyze_duration 5000000 reached at 501
5510

Seems stream 1 codec frame rate differs from container frame rate: 59.94 (60000/
1001) -> 29.97 (2997/100)
Input #0, mov,mp4,m4a,3gp,3g2,mj2, from 'http://media.kelbymediagroup.com/switch
/video/photoshopuser-tv-episode-282.mp4':
  Metadata:
    major_brand     : mp42
    minor_version   : 1
    compatible_brands: isommp41avc1
    creation_time   : 2011-09-28 16:59:47
    comment         : ┬⌐  Kelby Media Group. All Rights Reserved
    comment-eng     : ┬⌐  Kelby Media Group. All Rights Reserved
    copyright       : kelbymediagroup.com
    copyright-eng   : kelbymediagroup.com
  Duration: 00:28:38.28, start: 0.000000, bitrate: 2339 kb/s
    Stream #0.0(eng): Audio: aac, 44100 Hz, stereo, s16, 127 kb/s
    Metadata:
      creation_time   : 2011-09-28 16:59:47
    Stream #0.1(eng): Video: h264 (Baseline), yuv420p, 640x360 [PAR 1:1 DAR 16:9
], 1002 kb/s, 29.97 fps, 29.97 tbr, 2997 tbn, 59.94 tbc
    Metadata:
      creation_time   : 2011-09-28 16:59:47
    Stream #0.2(eng): Data: rtp  / 0x20707472, 1070 kb/s
    Metadata:
      creation_time   : 2011-09-28 16:59:47
    Stream #0.3(eng): Data: rtp  / 0x20707472, 134 kb/s
    Metadata:
      creation_time   : 2011-09-28 16:59:47
    Stream #0.4(eng): Data: mp4s / 0x7334706D, 0 kb/s
    Metadata:
      creation_time   : 2011-09-28 16:59:47
    Stream #0.5(eng): Data: mp4s / 0x7334706D, 0 kb/s
    Metadata:
      creation_time   : 2011-09-28 16:59:47
[ac3 @ 041a5f00] channel_layout not specified
[ac3 @ 041a5f00] No channel layout specified. The encoder will guess the layout,
 but it might be incorrect.
[mpegts @ 016e14a0] muxrate VBR, pcr every 2 pkts, sdt every 200, pat/pmt every
40 pkts
Output #0, mpegts, to 'C:\windows\TEMP\Serviio\transcoding-temp-1000000000640003
-MPEG2TS.stf':
  Metadata:
    major_brand     : mp42
    minor_version   : 1
    compatible_brands: isommp41avc1
    creation_time   : 2011-09-28 16:59:47
    comment         : ┬⌐  Kelby Media Group. All Rights Reserved
    comment-eng     : ┬⌐  Kelby Media Group. All Rights Reserved
    copyright       : kelbymediagroup.com
    copyright-eng   : kelbymediagroup.com
    encoder         : Lavf53.6.0
    Stream #0.0(eng): Video: avc1 / 0x31637661, yuv420p, 640x360 [PAR 1:1 DAR 16
:9], q=2-31, 1002 kb/s, 90k tbn, 29.97 tbc
    Metadata:
      creation_time   : 2011-09-28 16:59:47
    Stream #0.1(eng): Audio: ac3, 44100 Hz, stereo, s16, 384 kb/s
    Metadata:
      creation_time   : 2011-09-28 16:59:47
Stream mapping:
  Stream #0.1 -> #0.0
  Stream #0.0 -> #0.1
Press [q] to stop, [?] for help
<<

Phil.cdtpixel

Serviio lover

Posts: 50

Joined: Tue Sep 27, 2011 9:02 am

Location: Aix en Provence (France)

Post Sat Oct 29, 2011 12:05 pm

Re: Kelby TV (Photoshop)

I'm happy not to be the only one with that problem :D
<<

hortur

User avatar

Serviio newbie

Posts: 6

Joined: Thu Oct 11, 2018 1:59 pm

Location: Riga

Post Thu Feb 21, 2019 6:42 pm

Re: Kelby TV (Photoshop)

DownUnder wrote:These worked for me. Photoshop tutorials.

Photoshop User TV: http://kelbytv.com/photoshopusertv/feed/rss/

Photoshop Killer Tips: http://kelbytv.com/photoshopkillertips/feed/rss/

Larrys Cheap Shots: http://kelbytv.com/cheapshots/feed/rss/

Lightroom Killer Tips: http://kelbytv.com/lightroomkillertips/feed/rss/

Cheers


Good resources, thank You very much for share. Post more if you have
Per aspera, ad astra, ad infinitum.
:D :ugeek: 8-)

Return to Science & Technology

Who is online

Users browsing this forum: No registered users and 1 guest

Powered by phpBB © 2000, 2002, 2005, 2007 phpBB Group.
Designed by ST Software for PTF.