FAQ  •  Register  •  Login

Sony BDP-470 No files are recognized

<<

arunneo

Serviio newbie

Posts: 3

Joined: Fri Dec 31, 2010 6:11 pm

Post Fri Dec 31, 2010 6:23 pm

Sony BDP-470 No files are recognized

Hi,

I jsut downloaded Serviio , pretty easy to configure and i see the server listed in my Bluray player. But none of the files are visible. I used the Intel Unp Av Media Controller, even there it was not listed. Here is the o/p of the mkv file using ffmpeg -i

FFmpeg version SVN-r23012, Copyright (c) 2000-2010 the FFmpeg developers
built on May 3 2010 19:05:24 with gcc 3.4.5 (mingw-vista special r3)
configuration: --enable-static --disable-shared --disable-ffplay --disable-ffs
erver --enable-memalign-hack --enable-libmp3lame --enable-w32threads --extra-ldf
lags=-L/static/lib --extra-cflags=-I/static/include
libavutil 50.15. 0 / 50.15. 0
libavcodec 52.66. 0 / 52.66. 0
libavformat 52.62. 0 / 52.62. 0
libavdevice 52. 2. 0 / 52. 2. 0
libswscale 0.10. 0 / 0.10. 0
[matroska @ 0034bd60]MAX_READ_SIZE:5000000 reached
[matroska @ 0034bd60]Estimating duration from bitrate, this may be inaccurate

Seems stream 0 codec frame rate differs from container frame rate: 48.00 (200000
00/416667) -> 24.00 (20000000/833334)
Input #0, matroska, from 'C:\Downloads\videosongs\hindi\02. Kuch To Hua Hai 720p
BluRay x264 DTS [iMN].mkv':
Duration: 00:05:06.00, start: 0.000000, bitrate: N/A
Chapter #0.0: start 0.000000, end 305.997000
Metadata:
title : 01:15:37.917
Chapter #0.1: start 305.997000, end 306.001000
Metadata:
title : 01:20:43.917
Stream #0.0(eng): Video: h264, yuv420p, 1280x544 [PAR 1:1 DAR 40:17], 24 tbr
, 1k tbn, 48 tbc
Stream #0.1: Audio: dca, 48000 Hz, 6 channels, s16
Stream #0.2(eng): Subtitle: dvdsub
At least one output file must be specified
<<

zip

User avatar

Serviio developer / Site Admin

Posts: 17014

Joined: Sat Oct 24, 2009 12:24 pm

Location: London, UK

Post Fri Dec 31, 2010 6:25 pm

Re: Sony BDP-470 No files are recognized

<<

arunneo

Serviio newbie

Posts: 3

Joined: Fri Dec 31, 2010 6:11 pm

Post Fri Dec 31, 2010 8:01 pm

Re: Sony BDP-470 No files are recognized

I already tried US Profile with no vail...will try canadian / european profile.
<<

arunneo

Serviio newbie

Posts: 3

Joined: Fri Dec 31, 2010 6:11 pm

Post Fri Dec 31, 2010 8:13 pm

Re: Sony BDP-470 No files are recognized

nope the same file is seen in windows media server

Return to General discussion

Who is online

Users browsing this forum: No registered users and 3 guests

Powered by phpBB © 2000, 2002, 2005, 2007 phpBB Group.
Designed by ST Software for PTF.