FAQ  •  Register  •  Login

Streaming online stream with hash info presentet.

<<

colo360

Serviio newbie

Posts: 2

Joined: Wed Apr 04, 2012 7:05 am

Post Wed Apr 04, 2012 7:20 am

Streaming online stream with hash info presentet.

the following work ok i can see the stream in VLC (please note the −−swfhash −w hexstring option)

rtmpdump --live -v -r rtmp://cp115491.live.edgefcs.net/live -W http://www.wilmaa.com/player/main_v5.033.swf -x 927444 -w 6c1be1765187eae0bc9af07d858fae59a0effd3c5b803d08db261ced2c5512bb -p http://www.wilmaa.com -y tsr2_1_800@45523 | "C:\Program Files\VideoLAN\VLC\vlc.exe" -

the following in serviio rtmp://cp115491.live.edgefcs.net/live swfUrl=http://www.wilmaa.com/player/main_v5.033.swf pageUrl=http://www.wilmaa.com playpath=tsr2_1_800@45523 live=1 swfVfy=1 doesn't work.

debbugging it:

ffmpeg -i "rtmp://cp115491.live.edgefcs.net/live swfUrl=http://www.wilmaa.com/player/main_v5.033.swf pageUrl=http://www.wilmaa.com playpath=tsr2_1_800@45523 live=1 swfVfy=1"

please not in the output the following critical lines:
RTMP_HashSWF: swfurl http://www.wilmaa.com/player/main_v5.033.swf not found
HandleCtrl: Ignoring SWFVerification request, use --swfVfy!

[h264 @ 03003280] AVC: nal size 21102622
[h264 @ 03003280] no frame!

full output:
C:\tmp\rtmpGUI>ffmpeg -i "rtmp://cp115491.live.edgefcs.net/live swfUrl=http://ww
w.wilmaa.com/player/main_v5.033.swf pageUrl=http://www.wilmaa.com playpath=tsr2_
1_800@45523 live=1 swfVfy=1"
ffmpeg version N-39267-g4082198 Copyright (c) 2000-2012 the FFmpeg developers
built on Mar 25 2012 20:25:08 with gcc 4.6.2
configuration: --enable-gpl --enable-version3 --disable-w32threads --enable-ru
ntime-cpudetect --enable-avisynth --enable-bzlib --enable-frei0r --enable-libope
ncore-amrnb --enable-libopencore-amrwb --enable-libfreetype --enable-libgsm --en
able-libmp3lame --enable-libopenjpeg --enable-librtmp --enable-libschroedinger -
-enable-libspeex --enable-libtheora --enable-libvo-aacenc --enable-libvo-amrwben
c --enable-libvorbis --enable-libvpx --enable-libx264 --enable-libxavs --enable-
libxvid --enable-zlib
libavutil 51. 44.100 / 51. 44.100
libavcodec 54. 12.100 / 54. 12.100
libavformat 54. 3.100 / 54. 3.100
libavdevice 53. 4.100 / 53. 4.100
libavfilter 2. 65.102 / 2. 65.102
libswscale 2. 1.100 / 2. 1.100
libswresample 0. 10.100 / 0. 10.100
libpostproc 52. 0.100 / 52. 0.100
RTMP_HashSWF: swfurl http://www.wilmaa.com/player/main_v5.033.swf not found
HandleCtrl: Ignoring SWFVerification request, use --swfVfy!
Metadata:
author
copyright
description
keywords
rating
title
presetname Custom
creationdate Wed Mar 21 13:27:06 2012
videodevice Osprey-450e Video Device 1B
framerate 25.00
width 512.00
height 288.00
videocodecid avc1
videodatarate 800.00
avclevel 30.00
avcprofile 66.00
videokeyframe_frequency2.00
audiodevice Osprey-450e Audio Device 1B
audiosamplerate 44100.00
audiochannels 2.00
audioinputvolume 75.00
audiocodecid mp4a
audiodatarate 64.00
[h264 @ 03003280] AVC: nal size 21102622
[h264 @ 03003280] no frame!
[flv @ 01D39AA0] Estimating duration from bitrate, this may be inaccurate
Input #0, flv, from 'rtmp://cp115491.live.edgefcs.net/live swfUrl=http://www.wil
maa.com/player/main_v5.033.swf pageUrl=http://www.wilmaa.com playpath=tsr2_1_800
@45523 live=1 swfVfy=1':
Metadata:
author :
copyright :
description :
keywords :
rating :
title :
presetname : Custom
creationdate : Wed Mar 21 13:27:06 2012
:
videodevice : Osprey-450e Video Device 1B
avclevel : 30
avcprofile : 66
videokeyframe_frequency: 2
audiodevice : Osprey-450e Audio Device 1B
audiochannels : 2
audioinputvolume: 75
Duration: N/A, start: 0.000000, bitrate: 884 kb/s
Stream #0:0: Video: h264 (Baseline), yuv420p, 512x288 [SAR 1:1 DAR 16:9], 81
9 kb/s, 25 tbr, 1k tbn, 50 tbc
Stream #0:1: Audio: aac, 44100 Hz, stereo, s16, 65 kb/s
At least one output file must be specified

what Am i doing wrong converting the rtmpdump string?

Thanks.
<<

jhb50

DLNA master

Posts: 2856

Joined: Thu Jun 30, 2011 9:32 pm

Post Wed Apr 04, 2012 12:48 pm

Re: Streaming online stream with hash info presentet.

Make swfVfy=0
<<

colo360

Serviio newbie

Posts: 2

Joined: Wed Apr 04, 2012 7:05 am

Post Thu Apr 05, 2012 6:55 am

Re: Streaming online stream with hash info presentet.

jhb50 wrote:Make swfVfy=0



well I have the stream seldomly working on my TV sony bravia, what i mean is that it works 2/3 times out of 10 (roughly) when I select the channel on my TV.
I do not have any clue why!
the only thing I can think of at the moment and it may have a relation with it, is that from my command prompt if I run (please note swfVfy=0)

ffmpeg -i "rtmp://cp115491.live.edgefcs.net/live swfUrl=http://www.wilmaa.com/player/main_v5.033.swf pageUrl=http://www.wilmaa.com playpath=tsr2_1_800@45523 live=1 swfVfy=0"

not always but as often i still get the following errors:

[h264 @ 03003280] AVC: nal size 21102622
[h264 @ 03003280] no frame!

Thanks in advance and by the way serviio it's a beautiful app.

Return to Video streams

Who is online

Users browsing this forum: No registered users and 6 guests

Powered by phpBB © 2000, 2002, 2005, 2007 phpBB Group.
Designed by ST Software for PTF.