FAQ  •  Register  •  Login

samsung LE37C580

<<

arniebovis

Serviio newbie

Posts: 2

Joined: Thu Apr 07, 2011 12:13 pm

Post Thu Apr 07, 2011 12:17 pm

samsung LE37C580

Got serviio 0.52 working with most of my videos, but getting video codec not supported with .wmv files. Any suggestions?
<<

Illico

User avatar

DLNA master

Posts: 4645

Joined: Fri Jul 23, 2010 8:08 am

Location: France

Post Thu Apr 07, 2011 12:18 pm

Re: samsung LE37C580

Could you post "ffmpeg -i" result of your file (see signatures links)?
Illico
Sony 2010 KDL-46EX501 | BDP-S373 | SMP-N100 | Windows 8-i7 | Network DD HD-CE1.5TLU2 | Livebox2-UHD86 | ServiiDroid | ServiiGo | BubbleUPnP
Serviio beta tester - Moderator
<<

arniebovis

Serviio newbie

Posts: 2

Joined: Thu Apr 07, 2011 12:13 pm

Post Thu Apr 07, 2011 5:10 pm

Re: samsung LE37C580

Here is the info requested

  Code:
C:\Program Files (x86)\Serviio\lib>ffmpeg.exe -i "C:\users\pat\videos\schoolofMusic\Videos\BluesIntro34.wmv"
FFmpeg version UNKNOWN, Copyright (c) 2000-2011 the FFmpeg developers
  built on Jan 10 2011 21:46:22 with gcc 4.4.2
  configuration: --enable-static --disable-shared --disable-shared --disable-ffplay --disable-ffserver --enable-memalign-hack --enable-libmp3lame --arch=x86 --enable-runtime-pudetect --enable-w32threads --target-os=mingw32 --cross-prefix=i686-mingw32-
  libavutil     50.36. 0 / 50.36. 0
  libavcore      0.16. 0 /  0.16. 0
  libavcodec    52.108. 0 / 52.108. 0
  libavformat   52.92. 0 / 52.92. 0
  libavdevice   52. 2. 3 / 52. 2. 3
  libavfilter    1.72. 0 /  1.72. 0
  libswscale     0.12. 0 /  0.12. 0

Seems stream 0 codec frame rate differs from container frame rate: 1000.00 (1000
/1) -> 25.00 (25/1)
Input #0, asf, from 'C:\users\pat\videos\schoolofMusic\Videos\BluesIntro34.wmv':

  Duration: 00:22:07.53, start: 3.100000, bitrate: 1079 kb/s
    Stream #0.0: Video: wmv1, yuv420p, 550x309, 25 tbr, 1k tbn, 1k tbc
    Stream #0.1: Audio: wmav1, 44100 Hz, 1 channels, s16, 64 kb/s
<<

Illico

User avatar

DLNA master

Posts: 4645

Joined: Fri Jul 23, 2010 8:08 am

Location: France

Post Fri Apr 08, 2011 7:06 am

Re: samsung LE37C580

arniebovis wrote:Seems stream 0 codec frame rate differs from container frame rate: 1000.00 (1000/1) -> 25.00 (25/1)
Input #0, asf, from 'C:\users\pat\videos\schoolofMusic\Videos\BluesIntro34.wmv':
Duration: 00:22:07.53, start: 3.100000, bitrate: 1079 kb/s
Stream #0.0: Video: wmv1, yuv420p, 550x309, 25 tbr, 1k tbn, 1k tbc
Stream #0.1: Audio: wmav1, 44100 Hz, 1 channels, s16, 64 kb/s

wmav1 is supported and return WMA profile
wmv1 is supported and return WMV profile

But I don't know if 1 channel audio is supported by ffmpeg.

Could you enable detailed logging (see signature) and post the line with ffmpeg command when you start the movie?
Illico
Sony 2010 KDL-46EX501 | BDP-S373 | SMP-N100 | Windows 8-i7 | Network DD HD-CE1.5TLU2 | Livebox2-UHD86 | ServiiDroid | ServiiGo | BubbleUPnP
Serviio beta tester - Moderator

Return to Samsung

Who is online

Users browsing this forum: No registered users and 6 guests

Powered by phpBB © 2000, 2002, 2005, 2007 phpBB Group.
Designed by ST Software for PTF.