FAQ  •  Register  •  Login

Issue with playback on 1.7+

<<

mmarauder

Streaming enthusiast

Posts: 40

Joined: Sat Jan 28, 2012 4:02 pm

Location: VA

Post Sun Nov 06, 2016 7:49 pm

Issue with playback on 1.7+

So I upgraded to serviio 1.7.1 and on both of my samsung TVs (D8000 and UN65HU7250) most of my files won't play. I get an unsupported file error. I downgraded to 1.7 and i still have the issue. Switching back to 1.6 and the files work fine. I haven't made any other changes to the system. My guess is it is a transcoding issue, as some work and other don't. Just not sure what I need to change as the profiles for C/D series TV are the same, but I notice a lot of configs outside of the specific profiles are different. Not sure if they come into play.

Here are 2 example ffmpeg outputs. The first Blindspot does NOT play, while Blue Bloods does

@serviio:/opt/serviio/bin# ffmpeg -i "/media/TempData/Seeding/Blindspot.S02E06.Her.Spys.Mind.AMZN.720p.WEBRip.DD5.1.x264-DRACULA.mkv"
ffmpeg version N-74714-g47b41fe Copyright (c) 2000-2015 the FFmpeg developers
built with gcc 4.8 (Ubuntu 4.8.4-2ubuntu1~14.04)
configuration: --prefix=/root/ffmpeg_build --pkg-config-flags=--static --extra-cflags=-I/root/ffmpeg_build/include --extra-ldflags=-L/root/ffmpeg_build/lib --bindir=/root/bin --enable-gpl --enable-libass --enable-libfdk-aac --enable-libfreetype --enable-libmp3lame --enable-libopus --enable-libtheora --enable-libvorbis --enable-libvpx --enable-libx264 --enable-libx265 --enable-nonfree
libavutil 54. 31.100 / 54. 31.100
libavcodec 56. 59.100 / 56. 59.100
libavformat 56. 40.101 / 56. 40.101
libavdevice 56. 4.100 / 56. 4.100
libavfilter 5. 40.100 / 5. 40.100
libswscale 3. 1.101 / 3. 1.101
libswresample 1. 2.101 / 1. 2.101
libpostproc 53. 3.100 / 53. 3.100
Input #0, matroska,webm, from '/media/TempData/Seeding/Blindspot.S02E06.Her.Spys.Mind.AMZN.720p.WEBRip.DD5.1.x264-DRACULA.mkv':
Metadata:
encoder : libebml v1.3.4 + libmatroska v1.4.5
creation_time : 2016-10-29 09:36:17
Duration: 00:42:58.69, start: 0.000000, bitrate: 8352 kb/s
Stream #0:0(eng): Video: h264 (High), yuv420p, 1280x720 [SAR 1:1 DAR 16:9], 23.98 fps, 23.98 tbr, 1k tbn, 47.95 tbc (default)
Metadata:
BPS : 7710658
BPS-eng : 7710658
DURATION : 00:42:58.535000000
DURATION-eng : 00:42:58.535000000
NUMBER_OF_FRAMES: 61823
NUMBER_OF_FRAMES-eng: 61823
NUMBER_OF_BYTES : 2485275500
NUMBER_OF_BYTES-eng: 2485275500
_STATISTICS_WRITING_APP: mkvmerge v9.5.0 ('Quiet Fire') 64bit
_STATISTICS_WRITING_APP-eng: mkvmerge v9.5.0 ('Quiet Fire') 64bit
_STATISTICS_WRITING_DATE_UTC: 2016-10-29 09:36:17
_STATISTICS_WRITING_DATE_UTC-eng: 2016-10-29 09:36:17
_STATISTICS_TAGS: BPS DURATION NUMBER_OF_FRAMES NUMBER_OF_BYTES
_STATISTICS_TAGS-eng: BPS DURATION NUMBER_OF_FRAMES NUMBER_OF_BYTES
Stream #0:1(eng): Audio: eac3, 48000 Hz, 5.1(side), fltp, 640 kb/s (default)
Metadata:
BPS : 640000
BPS-eng : 640000
DURATION : 00:42:58.688000000
DURATION-eng : 00:42:58.688000000
NUMBER_OF_FRAMES: 80584
NUMBER_OF_FRAMES-eng: 80584
NUMBER_OF_BYTES : 206295040
NUMBER_OF_BYTES-eng: 206295040
_STATISTICS_WRITING_APP: mkvmerge v9.5.0 ('Quiet Fire') 64bit
_STATISTICS_WRITING_APP-eng: mkvmerge v9.5.0 ('Quiet Fire') 64bit
_STATISTICS_WRITING_DATE_UTC: 2016-10-29 09:36:17
_STATISTICS_WRITING_DATE_UTC-eng: 2016-10-29 09:36:17
_STATISTICS_TAGS: BPS DURATION NUMBER_OF_FRAMES NUMBER_OF_BYTES
_STATISTICS_TAGS-eng: BPS DURATION NUMBER_OF_FRAMES NUMBER_OF_BYTES
Stream #0:2(eng): Subtitle: subrip (default)
Metadata:
BPS : 91
BPS-eng : 91
DURATION : 00:42:53.538000000
DURATION-eng : 00:42:53.538000000
NUMBER_OF_FRAMES: 950
NUMBER_OF_FRAMES-eng: 950
NUMBER_OF_BYTES : 29276
NUMBER_OF_BYTES-eng: 29276
_STATISTICS_WRITING_APP: mkvmerge v9.5.0 ('Quiet Fire') 64bit
_STATISTICS_WRITING_APP-eng: mkvmerge v9.5.0 ('Quiet Fire') 64bit
_STATISTICS_WRITING_DATE_UTC: 2016-10-29 09:36:17
_STATISTICS_WRITING_DATE_UTC-eng: 2016-10-29 09:36:17
_STATISTICS_TAGS: BPS DURATION NUMBER_OF_FRAMES NUMBER_OF_BYTES
_STATISTICS_TAGS-eng: BPS DURATION NUMBER_OF_FRAMES NUMBER_OF_BYTES
At least one output file must be specified


@serviio:/opt/serviio/bin# ffmpeg -i "/media/TempData/Seeding/Blue.Bloods.S07E06.720p.HDTV.X264-DIMENSION.mkv"
ffmpeg version N-74714-g47b41fe Copyright (c) 2000-2015 the FFmpeg developers
built with gcc 4.8 (Ubuntu 4.8.4-2ubuntu1~14.04)
configuration: --prefix=/root/ffmpeg_build --pkg-config-flags=--static --extra-cflags=-I/root/ffmpeg_build/include --extra-ldflags=-L/root/ffmpeg_build/lib --bindir=/root/bin --enable-gpl --enable-libass --enable-libfdk-aac --enable-libfreetype --enable-libmp3lame --enable-libopus --enable-libtheora --enable-libvorbis --enable-libvpx --enable-libx264 --enable-libx265 --enable-nonfree
libavutil 54. 31.100 / 54. 31.100
libavcodec 56. 59.100 / 56. 59.100
libavformat 56. 40.101 / 56. 40.101
libavdevice 56. 4.100 / 56. 4.100
libavfilter 5. 40.100 / 5. 40.100
libswscale 3. 1.101 / 3. 1.101
libswresample 1. 2.101 / 1. 2.101
libpostproc 53. 3.100 / 53. 3.100
Input #0, matroska,webm, from '/media/TempData/Seeding/Blue.Bloods.S07E06.720p.HDTV.X264-DIMENSION.mkv':
Metadata:
encoder : libebml v1.3.1 + libmatroska v1.4.2
creation_time : 2016-10-28 15:54:48
Duration: 00:43:09.06, start: 0.000000, bitrate: 3341 kb/s
Stream #0:0(eng): Video: h264 (High), yuv420p(tv, bt709/unknown/unknown), 1280x720, SAR 1:1 DAR 16:9, 23.98 fps, 23.98 tbr, 1k tbn, 47.95 tbc (default)
Metadata:
BPS : 2955677
BPS-eng : 2955677
DURATION : 00:43:09.045000000
DURATION-eng : 00:43:09.045000000
NUMBER_OF_FRAMES: 62075
NUMBER_OF_FRAMES-eng: 62075
NUMBER_OF_BYTES : 956547872
NUMBER_OF_BYTES-eng: 956547872
_STATISTICS_WRITING_APP: mkvmerge v8.4.0 ('A better way to fly') 64bit
_STATISTICS_WRITING_APP-eng: mkvmerge v8.4.0 ('A better way to fly') 64bit
_STATISTICS_WRITING_DATE_UTC: 2016-10-28 15:54:48
_STATISTICS_WRITING_DATE_UTC-eng: 2016-10-28 15:54:48
_STATISTICS_TAGS: BPS DURATION NUMBER_OF_FRAMES NUMBER_OF_BYTES
_STATISTICS_TAGS-eng: BPS DURATION NUMBER_OF_FRAMES NUMBER_OF_BYTES
Stream #0:1: Audio: ac3, 48000 Hz, 5.1(side), fltp, 384 kb/s (default)
Metadata:
BPS : 384000
BPS-eng : 384000
DURATION : 00:43:09.056000000
DURATION-eng : 00:43:09.056000000
NUMBER_OF_FRAMES: 80908
NUMBER_OF_FRAMES-eng: 80908
NUMBER_OF_BYTES : 124274688
NUMBER_OF_BYTES-eng: 124274688
_STATISTICS_WRITING_APP: mkvmerge v8.4.0 ('A better way to fly') 64bit
_STATISTICS_WRITING_APP-eng: mkvmerge v8.4.0 ('A better way to fly') 64bit
_STATISTICS_WRITING_DATE_UTC: 2016-10-28 15:54:48
_STATISTICS_WRITING_DATE_UTC-eng: 2016-10-28 15:54:48
_STATISTICS_TAGS: BPS DURATION NUMBER_OF_FRAMES NUMBER_OF_BYTES
_STATISTICS_TAGS-eng: BPS DURATION NUMBER_OF_FRAMES NUMBER_OF_BYTES
At least one output file must be specified
root@serviio:/opt/serviio/bin#
<<

zip

User avatar

Serviio developer / Site Admin

Posts: 17090

Joined: Sat Oct 24, 2009 12:24 pm

Location: London, UK

Post Thu Nov 10, 2016 8:51 am

Re: Issue with playback on 1.7+

I assume it could be down to the FFMpeg being not up-to-date.

Return to Samsung

Who is online

Users browsing this forum: No registered users and 4 guests

Powered by phpBB © 2000, 2002, 2005, 2007 phpBB Group.
Designed by ST Software for PTF.