FAQ  •  Register  •  Login

A couple of files with issues on D6000

<<

boozed

Serviio newbie

Posts: 3

Joined: Sat May 28, 2011 3:12 am

Post Sat May 28, 2011 3:58 am

A couple of files with issues on D6000

First of all thanks for the great software. I've only been using it for a week but I've already found it very useful and I hope that the donation I made helps with its continuing development.

With that out of the way, I've got a couple of files that I've found are causing problems for the TV. The TV's a UA46D6000, transcoding is enabled and I'm using the Samsung C/D Profile with a bitrate limit of 20Mb/s since it's currently on wireless. I put the logging in debug mode and restarted the server as per the instructions, but neither of the files get mentioned by name in the Serviio logfile. I will post this separately if necessary since it exceeds the character limit here.

The first file causes the TV to reboot, after which it displays the source it last booted to. Ffmpeg reports the following:

  Code:
Seems stream 1 codec frame rate differs from container frame rate: 1000.00 (1000
/1) -> 29.97 (30000/1001)
Input #0, asf, from 'E:\Videos\Games\Fallout 3 Trailers\Gameplay_1-Escape.wmv':
  Metadata:
    WM/ParentalRating: M for Mature
    WMFSDKVersion   : 10.00.00.4054
    WMFSDKNeeded    : 0.0.0.0000
    VBR Peak        : 350
    IsVBR           : 1
    Buffer Average  : 448
    title           : Fallout 3 Gameplay Demo Part 1 - Escape
    artist          : Bethesda Game Studios
    copyright       : ┬® 2008 Bethesda Softworks, LLC
    comment         :
  Duration: 00:03:55.41, start: 5.066000, bitrate: 15289 kb/s
    Stream #0.0(eng): Audio: wmapro, 48000 Hz, stereo, flt, 256 kb/s
    Stream #0.1(eng): Video: wmv3, yuv420p, 1280x720, 16000 kb/s, 29.97 tbr, 1k
tbn, 1k tbc


While MediaInfo reports the following:

  Code:
General
Complete name                    : E:\Videos\Games\Fallout 3 Trailers\Gameplay_1-Escape.wmv
Format                           : Windows Media
File size                        : 429 MiB
Duration                         : 3mn 55s
Overall bit rate mode            : Variable
Overall bit rate                 : 15.3 Mbps
Maximum Overall bit rate         : 35.4 Mbps
Movie name                       : Fallout 3 Gameplay Demo Part 1 - Escape
Performer                        : Bethesda Game Studios
Law rating                       : M for Mature
Encoded date                     : UTC 2008-08-28 19:20:35.504
Copyright                        : © 2008 Bethesda Softworks, LLC

Video
ID                               : 2
Format                           : VC-1
Format profile                   : MP@HL
Codec ID                         : WMV3
Codec ID/Info                    : Windows Media Video 9
Codec ID/Hint                    : WMV3
Description of the codec         : Windows Media Video 9 - Professional
Duration                         : 3mn 55s
Bit rate mode                    : Variable
Bit rate                         : 16.0 Mbps
Width                            : 1 280 pixels
Height                           : 720 pixels
Display aspect ratio             : 16:9
Frame rate                       : 29.970 fps
Bit depth                        : 8 bits
Scan type                        : Progressive
Compression mode                 : Lossy
Bits/(Pixel*Frame)               : 0.579
Stream size                      : 449 MiB
Language                         : English (US)

Audio
ID                               : 1
Format                           : WMA
Format profile                   : Pro
Codec ID                         : 162
Codec ID/Info                    : Windows Media Audio
Description of the codec         : Windows Media Audio 9.1 Professional - 256 kbps, 48 kHz, 2 channel 24 bit (A/V) 2-pass CBR
Duration                         : 3mn 55s
Bit rate mode                    : Constant
Bit rate                         : 256 Kbps
Channel(s)                       : 2 channels
Sampling rate                    : 48.0 KHz
Bit depth                        : 24 bits
Stream size                      : 7.19 MiB (2%)
Language                         : English (US)


The second fails to load on the TV, which after some time showing a black screen eventually gives an "unsupported video data" error and moves on to the next file. Ffmpeg reports the following:

  Code:
Input #0, avi, from 'E:\Videos\Sport\Motorsport\bathurst91divx.avi':
  Duration: 02:00:10.08, start: 0.000000, bitrate: 757 kb/s
    Stream #0.0: Video: mpeg4, yuv420p, 352x288 [PAR 1:1 DAR 11:9], 25 tbr, 25 t
bn, 25 tbc
    Stream #0.1: Audio: mp3, 44100 Hz, 2 channels, s16, 95 kb/s


While MediaInfo reports the following:

  Code:
General
Complete name                    : E:\Videos\Sport\Motorsport\bathurst91divx.avi
Format                           : AVI
Format/Info                      : Audio Video Interleave
File size                        : 651 MiB
Duration                         : 2h 0mn
Overall bit rate                 : 757 Kbps
Writing library                  : VirtualDub build 11759/release

Video
ID                               : 0
Format                           : MPEG-4 Visual
Codec ID                         : DIVX
Codec ID/Info                    : Project Mayo
Codec ID/Hint                    : DivX 4
Duration                         : 2h 0mn
Bit rate                         : 652 Kbps
Width                            : 352 pixels
Height                           : 288 pixels
Display aspect ratio             : 1.222
Frame rate                       : 25.000 fps
Standard                         : PAL
Color space                      : YUV
Chroma subsampling               : 4:2:0
Compression mode                 : Lossy
Bits/(Pixel*Frame)               : 0.257
Stream size                      : 560 MiB (86%)

Audio
ID                               : 1
Format                           : MPEG Audio
Format version                   : Version 1
Format profile                   : Layer 3
Mode                             : Joint stereo
Mode extension                   : Intensity Stereo + MS Stereo
Codec ID                         : 55
Codec ID/Hint                    : MP3
Duration                         : 2h 0mn
Bit rate mode                    : Constant
Bit rate                         : 96.0 Kbps
Channel(s)                       : 2 channels
Sampling rate                    : 44.1 KHz
Compression mode                 : Lossy
Stream size                      : 82.4 MiB (13%)
Alignment                        : Split accross interleaves
Interleave, duration             : 40 ms (1.00 video frame)
Interleave, preload duration     : 464 ms


Is there any other information I need to make this useful?
<<

zip

User avatar

Serviio developer / Site Admin

Posts: 17051

Joined: Sat Oct 24, 2009 12:24 pm

Location: London, UK

Post Sat May 28, 2011 4:32 pm

Re: A couple of files with issues on D6000

The first video should transcode the wmapro audio track and keep it n asf container. You could check the log to see if FFmpeg crashes.
The second file, looks normal, but obviously the TV doesn't like something about it - you might setup transcoding for it but then all your DivX AVI's would be transcoded, which is not ideal.
<<

boozed

Serviio newbie

Posts: 3

Joined: Sat May 28, 2011 3:12 am

Post Mon May 30, 2011 8:08 am

Re: A couple of files with issues on D6000

Thanks for your reply.

I should have checked this before; the WMV works just fine over USB.

The only references to FFMPEG in the log file are:

  Code:
2011-05-28 13:02:08,421 DEBUG [FFMPEGWrapper] Invoking FFMPEG to check if it exists of path C:\Program Files\Serviio\bin\\..\lib/ffmpeg.exe
2011-05-28 13:02:08,421 DEBUG [ProcessExecutor] Starting C:\Program Files\Serviio\bin\\..\lib/ffmpeg.exe


Is there anything else I should be looking for?

The DivX4 AVI worked on a friend's Samsung TV but doesn't work on mine over USB, so that's that I guess. Remuxing it to AVI or even MKV didn't seem to help, and DivFix didn't think much of it either. I don't have many high bitrate MPEG4 AVIs so it's not a huge problem to transcode them, but I notice that when transcoded these files no longer support seeking on the Samsung TV, is this a limitation of the transcoding or something else along the line?

Also I don't know how I managed not to find them the first time but my earlier statement "neither of the files get mentioned by name in the Serviio logfile" is wrong. They're both in there, it shows the AVI being sent to the TV but for some reason doesn't do the same for the WMV.

Cheers.
<<

boozed

Serviio newbie

Posts: 3

Joined: Sat May 28, 2011 3:12 am

Post Mon Jun 06, 2011 9:12 am

Re: A couple of files with issues on D6000

Is there anything else I can check that might shed more light on the WMV issue here?

Return to Samsung

Who is online

Users browsing this forum: No registered users and 5 guests

Powered by phpBB © 2000, 2002, 2005, 2007 phpBB Group.
Designed by ST Software for PTF.