FAQ  •  Register  •  Login

Newbie having issues with file format

<<

jaric

Serviio newbie

Posts: 1

Joined: Thu Jun 02, 2011 7:54 pm

Post Thu Jun 02, 2011 8:14 pm

Newbie having issues with file format

Hi There,

I am new to Serviio having discovered today and its pretty cool, but I noticed it had some problems with a couple of my MP4 files. Screen dump below of ffmpeg command. I have a Samsung LE46B650xxxx I initially ran it with the default profile of Generic DLNA then when that file didn't work on the status tab I chose the Samsung TV (B-Series) I stopped and restarted the server . Unfortunately that didn't work either so hoping you guys can help me out I am probably doing something really dumb.

C:\Apps\Serviio\lib>ffmpeg -i c:\movies\avatar.mp4
FFmpeg version UNKNOWN, Copyright (c) 2000-2011 the FFmpeg developers
built on Jan 10 2011 21:46:22 with gcc 4.4.2
configuration: --enable-static --disable-shared --disable-shared --disable-ffplay --disable-ffserv
er --enable-memalign-hack --enable-libmp3lame --arch=x86 --enable-runtime-cpudetect --enable-w32thre
ads --target-os=mingw32 --cross-prefix=i686-mingw32-
libavutil 50.36. 0 / 50.36. 0
libavcore 0.16. 0 / 0.16. 0
libavcodec 52.108. 0 / 52.108. 0
libavformat 52.92. 0 / 52.92. 0
libavdevice 52. 2. 3 / 52. 2. 3
libavfilter 1.72. 0 / 1.72. 0
libswscale 0.12. 0 / 0.12. 0
Input #0, mov,mp4,m4a,3gp,3g2,mj2, from 'c:\movies\avatar.mp4':
Metadata:
major_brand : isom
minor_version : 1
compatible_brands: isom
creation_time : 2010-02-07 03:18:53
Duration: 02:36:57.32, start: 0.000000, bitrate: 1922 kb/s
Stream #0.0(und): Video: h264, yuv420p, 720x400 [PAR 1:1 DAR 9:5], 1750 kb/s, 29.97 fps, 29.97 t
br, 30k tbn, 59.94 tbc
Metadata:
creation_time : 2010-02-05 09:02:31
Stream #0.1(und): Audio: aac, 48000 Hz, stereo, s16, 167 kb/s
Metadata:
creation_time : 2010-02-07 03:20:04
At least one output file must be specified

I also downloaded the media info information below:

General
Complete name : C:\Movies\Avatar.mp4
Format : MPEG-4
Format profile : Base Media
Codec ID : isom
File size : 2.11 GiB
Duration : 2h 36mn
Overall bit rate : 1 922 Kbps
Encoded date : UTC 2010-02-07 03:18:53
Tagged date : UTC 2010-02-07 03:18:53

Video
ID : 1
Format : AVC
Format/Info : Advanced Video Codec
Format profile : High@L4.1
Format settings, CABAC : Yes
Format settings, ReFrames : 8 frames
Format settings, GOP : M=3, N=24
Codec ID : avc1
Codec ID/Info : Advanced Video Coding
Duration : 2h 36mn
Bit rate mode : Variable
Bit rate : 1 750 Kbps
Maximum bit rate : 40.0 Mbps
Width : 720 pixels
Height : 400 pixels
Display aspect ratio : 16:9
Frame rate mode : Constant
Frame rate : 29.970 fps
Color space : YUV
Chroma subsampling : 4:2:0
Bit depth : 8 bits
Scan type : Progressive
Bits/(Pixel*Frame) : 0.203
Stream size : 1.92 GiB (91%)
Writing library : x264 core 84 r1416kGIT fcf70c2
Encoding settings : cabac=1 / ref=8 / deblock=1:-1:-1 / analyse=0x3:0x113 / me=umh / subme=9 / psy=1 / psy_rd=1.0:1.0 / mixed_ref=1 / me_range=16 / chroma_me=1 / trellis=2 / 8x8dct=1 / cqm=0 / deadzone=21,11 / fast_pskip=1 / chroma_qp_offset=-4 / threads=3 / sliced_threads=0 / slices=4 / nr=0 / decimate=1 / mbaff=0 / constrained_intra=0 / bframes=4 / b_pyramid=0 / b_adapt=2 / b_bias=0 / direct=1 / wpredb=1 / wpredp=2 / keyint=24 / keyint_min=2 / scenecut=40 / intra_refresh=0 / rc_lookahead=24 / rc=2pass / mbtree=1 / bitrate=1750 / ratetol=1.0 / qcomp=0.60 / qpmin=10 / qpmax=51 / qpstep=4 / cplxblur=20.0 / qblur=0.5 / vbv_maxrate=40000 / vbv_bufsize=30000 / ip_ratio=1.40 / aq=1:1.00
Encoded date : UTC 2010-02-05 09:02:31
Tagged date : UTC 2010-02-07 03:20:11

Audio
ID : 2
Format : AAC
Format/Info : Advanced Audio Codec
Format profile : LC
Codec ID : 40
Duration : 2h 36mn
Bit rate mode : Variable
Bit rate : 168 Kbps
Maximum bit rate : 218 Kbps
Channel(s) : 2 channels
Channel positions : Front: L R
Sampling rate : 48.0 KHz
Compression mode : Lossy
Stream size : 189 MiB (9%)
Encoded date : UTC 2010-02-07 03:20:04
Tagged date : UTC 2010-02-07 03:20:11

Thanks
<<

Illico

User avatar

DLNA master

Posts: 4645

Joined: Fri Jul 23, 2010 8:08 am

Location: France

Post Sun Jun 05, 2011 7:33 pm

Re: Newbie having issues with file format

Sorry, no idea,
Probably due to x264 encoding options not supported by your Samsung TV.
Illico
Sony 2010 KDL-46EX501 | BDP-S373 | SMP-N100 | Windows 8-i7 | Network DD HD-CE1.5TLU2 | Livebox2-UHD86 | ServiiDroid | ServiiGo | BubbleUPnP
Serviio beta tester - Moderator

Return to Samsung

Who is online

Users browsing this forum: No registered users and 13 guests

Powered by phpBB © 2000, 2002, 2005, 2007 phpBB Group.
Designed by ST Software for PTF.