FAQ  •  Register  •  Login

Samsung LA32D550 won't play h.264 streams

<<

antz

Serviio newbie

Posts: 15

Joined: Wed Dec 21, 2011 9:30 pm

Post Tue Mar 20, 2012 10:30 pm

Samsung LA32D550 won't play h.264 streams

Hi,

I am getting unsupported format when I tried to play my live stream video.

I am streaming the video myself. The media info of the file being stream is.


  Code:
General
Complete name                            : D:\file.mp4
Format                                   : MPEG-4
Format profile                           : Base Media / Version 2
Codec ID                                 : mp42
File size                                : 478 MiB
Duration                                 : 1h 0mn
Overall bit rate mode                    : Variable
Overall bit rate                         : 1 113 Kbps
Encoded date                             : UTC 2011-11-12 15:26:06
Tagged date                              : UTC 2011-11-12 17:01:12
Writing application                      : HandBrake 0.9.5 2011010300

Video
ID                                       : 1
Format                                   : AVC
Format/Info                              : Advanced Video Codec
Format profile                           : Main@L3.1
Format settings, CABAC                   : Yes
Format settings, ReFrames                : 4 frames
Codec ID                                 : avc1
Codec ID/Info                            : Advanced Video Coding
Duration                                 : 59mn 59s
Bit rate mode                            : Variable
Bit rate                                 : 947 Kbps
Width                                    : 720 pixels
Height                                   : 546 pixels
Display aspect ratio                     : 4:3
Frame rate mode                          : Variable
Frame rate                               : 29.970 fps
Minimum frame rate                       : 29.412 fps
Maximum frame rate                       : 1 000.000 fps
Color space                              : YUV
Chroma subsampling                       : 4:2:0
Bit depth                                : 8 bits
Scan type                                : Progressive
Bits/(Pixel*Frame)                       : 0.080
Stream size                              : 406 MiB (85%)
Writing library                          : x264 core 112
Encoding settings                        : cabac=1 / ref=2 / deblock=1:0:0 / analyse=0x1:0x111 / me=hex / subme=6 / psy=1 / psy_rd=1.00:0.00 / mixed_ref=0 / me_range=16 / chroma_me=1 / trellis=0 / 8x8dct=0 / cqm=0 / deadzone=21,11 / fast_pskip=1 / chroma_qp_offset=-2 / threads=3 / sliced_threads=0 / nr=0 / decimate=1 / interlaced=0 / constrained_intra=0 / bframes=2 / b_pyramid=2 / b_adapt=1 / b_bias=0 / direct=1 / weightb=0 / open_gop=0 / weightp=2 / keyint=300 / keyint_min=29 / scenecut=40 / intra_refresh=0 / rc_lookahead=40 / rc=crf / mbtree=1 / crf=20.0 / qcomp=0.60 / qpmin=3 / qpmax=51 / qpstep=4 / ip_ratio=1.40 / aq=1:1.00
Encoded date                             : UTC 2011-11-12 15:26:06
Tagged date                              : UTC 2011-11-12 17:00:49
Color primaries                          : BT.601-6 525, BT.1358 525, BT.1700 NTSC, SMPTE 170M
Transfer characteristics                 : BT.709-5, BT.1361
Matrix coefficients                      : BT.601-6 525, BT.1358 525, BT.1700 NTSC, SMPTE 170M

Audio
ID                                       : 2
Format                                   : AAC
Format/Info                              : Advanced Audio Codec
Format profile                           : LC
Codec ID                                 : 40
Duration                                 : 1h 0mn
Bit rate mode                            : Variable
Bit rate                                 : 160 Kbps
Maximum bit rate                         : 280 Kbps
Channel(s)                               : 2 channels
Channel positions                        : Front: L R
Sampling rate                            : 48.0 KHz
Compression mode                         : Lossy
Stream size                              : 68.6 MiB (14%)
Encoded date                             : UTC 2011-11-12 15:26:06
Tagged date                              : UTC 2011-11-12 17:00:49

Text
ID                                       : 3
Format                                   : Apple text
Codec ID                                 : text
Duration                                 : 59mn 59s
Bit rate                                 : 0
Stream size                              : 23.0 Bytes (0%)
Encoded date                             : UTC 2011-11-12 15:26:06
Tagged date                              : UTC 2011-11-12 17:00:49


This is rtmp stream

Thanks
<<

zip

User avatar

Serviio developer / Site Admin

Posts: 17127

Joined: Sat Oct 24, 2009 12:24 pm

Location: London, UK

Post Tue Mar 27, 2012 5:09 pm

Re: Samsung LA32D550 won't play h.264 streams

try using less ref frames.

Return to Samsung

Who is online

Users browsing this forum: No registered users and 12 guests

Powered by phpBB © 2000, 2002, 2005, 2007 phpBB Group.
Designed by ST Software for PTF.