FAQ  •  Register  •  Login

transcode with Ue40c5100

<<

sidecar12

Serviio newbie

Posts: 5

Joined: Fri Nov 26, 2010 10:55 am

Post Fri Nov 26, 2010 1:48 pm

transcode with Ue40c5100

Big thanks for your soft it's great !

I try to transcode mkv files with samsung C profile but nothing happen.
how can i check if transcode start? It's seem it do not start?

Thanks
Sidecar12
<<

Illico

User avatar

DLNA master

Posts: 4649

Joined: Fri Jul 23, 2010 8:08 am

Location: France

Post Fri Nov 26, 2010 2:14 pm

Re: transcode with Ue40c5100

Please read the "HOW TO" topics viewforum.php?f=5
You can check if transcode start in the detailed log file.viewtopic.php?f=5&t=7
Illico
Sony 2010 KDL-46EX501 | BDP-S373 | SMP-N100 | Windows 8-i7 | Network DD HD-CE1.5TLU2 | Livebox2-UHD86 | ServiiDroid | ServiiGo | BubbleUPnP
Serviio beta tester - Moderator
<<

sidecar12

Serviio newbie

Posts: 5

Joined: Fri Nov 26, 2010 10:55 am

Post Fri Nov 26, 2010 2:37 pm

Re: transcode with Ue40c5100

Thank,i try to make it

Sidecar12
<<

zip

User avatar

Serviio developer / Site Admin

Posts: 16992

Joined: Sat Oct 24, 2009 12:24 pm

Location: London, UK

Post Fri Nov 26, 2010 3:17 pm

Re: transcode with Ue40c5100

Also, the C Samsungs play almost everything, what is your file? ffmpeg -i
<<

sidecar12

Serviio newbie

Posts: 5

Joined: Fri Nov 26, 2010 10:55 am

Post Fri Nov 26, 2010 4:39 pm

Re: transcode with Ue40c5100

Please read this there are 2 files inside that samsung doesn't play

C:\Mirc download>ffmpeg -i +++++.mkv
FFmpeg version SVN-r25456-Sherpya, Copyright (c) 2000-2010 the FFmpeg developers
built on Oct 14 2010 16:46:15 with gcc 4.2.5 20090330 (prerelease) [Sherpya]
libavutil 50.32. 3 / 50.32. 3
libavcore 0. 9. 1 / 0. 9. 1
libavcodec 52.92. 0 / 52.92. 0
libavformat 52.81. 0 / 52.81. 0
libavdevice 52. 2. 2 / 52. 2. 2
libavfilter 1.51. 1 / 1.51. 1
libswscale 0.12. 0 / 0.12. 0
libpostproc 51. 2. 0 / 51. 2. 0
[matroska,webm @ 01a5d150] Estimating duration from bitrate, this may be inaccurate

Seems stream 0 codec frame rate differs from container frame rate: 47.95 (48000/1001) -> 24.00 (24/1)
Input #0, matroska,webm, from '+++++.mkv':
Duration: 02:28:07.96, start: 0.000000, bitrate: 384 kb/s
Stream #0.0(ita): Video: h264, yuv420p, 1280x536 [PAR 1:1 DAR 160:67], 23.98 fps, 24 tbr, 1k tbn, 47.95 tbc
Stream #0.1(ita): Audio: ac3, 48000 Hz, 5.1, s16, 384 kb/s
At least one output file must be specified

C:\Mirc download>ffmpeg -i ++++++.mkv
FFmpeg version SVN-r25456-Sherpya, Copyright (c) 2000-2010 the FFmpeg developers
built on Oct 14 2010 16:46:15 with gcc 4.2.5 20090330 (prerelease) [Sherpya]
libavutil 50.32. 3 / 50.32. 3
libavcore 0. 9. 1 / 0. 9. 1
libavcodec 52.92. 0 / 52.92. 0
libavformat 52.81. 0 / 52.81. 0
libavdevice 52. 2. 2 / 52. 2. 2
libavfilter 1.51. 1 / 1.51. 1
libswscale 0.12. 0 / 0.12. 0
libpostproc 51. 2. 0 / 51. 2. 0
[matroska,webm @ 01a5cd70] Estimating duration from bitrate, this may be inaccurate

Seems stream 1 codec frame rate differs from container frame rate: 47.95 (48000/1001) -> 24.00 (24/1)
Input #0, matroska,webm, from '++++++.mkv':
Duration: 01:33:10.56, start: 0.000000, bitrate: 640 kb/s
Stream #0.0(ita): Audio: ac3, 48000 Hz, 5.1, s16, 640 kb/s
Metadata:
title : AC3.LONDON
Stream #0.1(eng): Video: h264, yuv420p, 1280x544 [PAR 1:1 DAR 40:17], 23.98 fps, 24 tbr, 1k tbn, 47.95 tbc
Metadata:
title : 720p.BluRay.x264-REFiNED
At least one output file must be specified


Sidecar12
Last edited by sidecar12 on Fri Nov 26, 2010 6:15 pm, edited 2 times in total.
<<

sidecar12

Serviio newbie

Posts: 5

Joined: Fri Nov 26, 2010 10:55 am

Post Fri Nov 26, 2010 4:54 pm

Re: transcode with Ue40c5100

Here the file for supported formats of my device UE40C5100
Sidecar12
Attachments
Log samsungue40c5100.7z
(919 Bytes) Downloaded 160 times
<<

sidecar12

Serviio newbie

Posts: 5

Joined: Fri Nov 26, 2010 10:55 am

Post Sat Nov 27, 2010 8:56 am

Re: transcode with Ue40c5100

Hi at all
I attached file with debug (i hope it's correct)
Sorry if it's wrong i'm newbie

Waiting your answer :|
Best regards
sidecar12
Attachments
Log debug.rar
(1.01 KiB) Downloaded 78 times
<<

zip

User avatar

Serviio developer / Site Admin

Posts: 16992

Joined: Sat Oct 24, 2009 12:24 pm

Location: London, UK

Post Sat Nov 27, 2010 8:02 pm

Re: transcode with Ue40c5100

The log is from playing a AVI file. Your files are MKV with H264/AC3 ... the TV sometimes doesn't play some files with H264 even though it normally supports it... it's just picky. Not much we can do unless you're willing to transcode into mpeg2

Return to Transcoding

Who is online

Users browsing this forum: No registered users and 3 guests

Powered by phpBB © 2000, 2002, 2005, 2007 phpBB Group.
Designed by ST Software for PTF.