FAQ  •  Register  •  Login

Transcode VDR Recordings (PES to TS or PS)

<<

sukkubus

Serviio newbie

Posts: 3

Joined: Sun Dec 26, 2010 9:36 am

Post Sun Dec 26, 2010 9:44 am

Transcode VDR Recordings (PES to TS or PS)

Hi,

I want to watch VDR-recordings on my Samsung C-Series LED-TV. Is it possible to rewrap/transcode vdr-files (PES) into a format suitable for my TV (e.g. .ts or .ps)? Could someone post the transcoding-config?

best regards,
sukkubus
<<

zip

User avatar

Serviio developer / Site Admin

Posts: 16992

Joined: Sat Oct 24, 2009 12:24 pm

Location: London, UK

Post Sun Dec 26, 2010 11:22 am

Re: Transcode VDR Recordings (PES to TS or PS)

post ffmpeg -i for one of the files
<<

sukkubus

Serviio newbie

Posts: 3

Joined: Sun Dec 26, 2010 9:36 am

Post Mon Dec 27, 2010 7:11 pm

Re: Transcode VDR Recordings (PES to TS or PS)

  Code:
ffmpeg -i

FFmpeg version SVN-r0.5.1-4:0.5.1-1ubuntu1, Copyright (c) 2000-2009 Fabrice Bellard, et al.
  configuration: --extra-version=4:0.5.1-1ubuntu1 --prefix=/usr --enable-avfilter --enable-avfilter-lavf --enable-vdpau --enable-bzlib --enable-libgsm --enable-libschroedinger --enable-libspeex --enable-libtheora --enable-libvorbis --enable-pthreads --enable-zlib --disable-stripping --disable-vhook --enable-runtime-cpudetect --enable-gpl --enable-postproc --enable-swscale --enable-x11grab --enable-libdc1394 --enable-shared --disable-static
  libavutil     49.15. 0 / 49.15. 0
  libavcodec    52.20. 1 / 52.20. 1
  libavformat   52.31. 0 / 52.31. 0
  libavdevice   52. 1. 0 / 52. 1. 0
  libavfilter    0. 4. 0 /  0. 4. 0
  libswscale     0. 7. 1 /  0. 7. 1
  libpostproc   51. 2. 0 / 51. 2. 0
  built on Mar  4 2010 12:35:30, gcc: 4.4.3

Seems stream 0 codec frame rate differs from container frame rate: 50.00 (50/1) -> 25.00 (25/1)
Input #0, mpeg, from '001.vdr':
  Duration: 01:21:39.42, start: 90404.131200, bitrate: 3424 kb/s
    Stream #0.0[0x1e0]: Video: mpeg2video, yuv420p, 720x576 [PAR 16:15 DAR 4:3], 15000 kb/s, 25 tbr, 90k tbn, 50 tbc
    Stream #0.1[0x80]: Audio: ac3, 48000 Hz, stereo, s16, 384 kb/s
    Stream #0.2[0x1c0]: Audio: mp2, 48000 Hz, stereo, s16, 192 kb/s
At least one output file must be specified

<<

zip

User avatar

Serviio developer / Site Admin

Posts: 16992

Joined: Sat Oct 24, 2009 12:24 pm

Location: London, UK

Post Tue Dec 28, 2010 10:06 am

Re: Transcode VDR Recordings (PES to TS or PS)

this should be playable. CAn you see the file in Serviio's library on the TV?
<<

sukkubus

Serviio newbie

Posts: 3

Joined: Sun Dec 26, 2010 9:36 am

Post Tue Dec 28, 2010 10:04 pm

Re: Transcode VDR Recordings (PES to TS or PS)

hi zip,

.vdr files are not recognized by Samsung C-Series TV. If i change the files to .mpg, they are listed by the media player of my TV. However, if I try to play them, "format not supported" is displayed on the TV. Same happens, when I copy the files to an external hdd and connect it directly to the TV (i.e. without using UPNP/DNLA).

Hence I was asking for a rewrap/transcoding option via dnla to transform PES (i.e. VDR-Recordings) to PS- or TS-mpegs, that are properly displayed on my TV. I tested this by using "projectx" to convert vdr-recordings to TS.

best regards,
sukkubus

Return to Transcoding

Who is online

Users browsing this forum: No registered users and 12 guests

Powered by phpBB © 2000, 2002, 2005, 2007 phpBB Group.
Designed by ST Software for PTF.