FAQ  •  Register  •  Login

Most Files are not shown on my Samsung LE40C650 TV

<<

dag0

Serviio newbie

Posts: 12

Joined: Sat Feb 26, 2011 3:04 pm

Location: Germany, Berlin

Post Fri Mar 25, 2011 1:06 pm

Most Files are not shown on my Samsung LE40C650 TV

Hello!

I have Serviio running on my Xp-PC and my Video-Files are located on my NAS. Most of them Blue Ray Rips. After having changed the serviio-service-account to "Administrator" I finally can see some of my video-files located on the NAS on my TV. But most of them not!

The files not appearing on my TV do not appear neither in the serviio-log during media-scan.
AVMedia Controller shows only those files for serviio I can also see on my Samsung LE40C650. ffmpeg -i on those files not shown up gives me error-messages like these: (All Blue Ray, first two created whith Handbrake, second whith ribbot264))

  Code:
D:\Program Files\Serviio\lib>ffmpeg -i "o:\Shared Videos\Benjamin Button.mkv"
FFmpeg version UNKNOWN, Copyright (c) 2000-2011 the FFmpeg developers
  built on Jan 10 2011 21:46:22 with gcc 4.4.2
  configuration: --enable-static --disable-shared --disable-shared --disable-ffp
lay --disable-ffserver --enable-memalign-hack --enable-libmp3lame --arch=x86 --e
nable-runtime-cpudetect --enable-w32threads --target-os=mingw32 --cross-prefix=i
686-mingw32-
  libavutil     50.36. 0 / 50.36. 0
  libavcore      0.16. 0 /  0.16. 0
  libavcodec    52.108. 0 / 52.108. 0
  libavformat   52.92. 0 / 52.92. 0
  libavdevice   52. 2. 3 / 52. 2. 3
  libavfilter    1.72. 0 /  1.72. 0
  libswscale     0.12. 0 /  0.12. 0
[matroska,webm @ 015ecd00] max_analyze_duration reached
[matroska,webm @ 015ecd00] Estimating duration from bitrate, this may be inaccur
ate

Seems stream 0 codec frame rate differs from container frame rate: 47.95 (48000/
1001) -> 23.98 (48000/2002)
Input #0, matroska,webm, from 'o:\Shared Videos\Benjamin Button.mkv':
  Duration: 02:46:04.19, start: 0.000000, bitrate: 640 kb/s
    Stream #0.0: Video: h264, yuv420p, 1920x1080 [PAR 1:1 DAR 16:9], 23.98 fps,
23.98 tbr, 1k tbn, 47.95 tbc
    Stream #0.1: Audio: ac3, 48000 Hz, 5.1, s16, 640 kb/s
    Stream #0.2(ger): Subtitle: pgssub
At least one output file must be specified


  Code:
D:\Program Files\Serviio\lib>ffmpeg -i "o:\Shared Videos\Inception.mkv"
FFmpeg version UNKNOWN, Copyright (c) 2000-2011 the FFmpeg developers
  built on Jan 10 2011 21:46:22 with gcc 4.4.2
  configuration: --enable-static --disable-shared --disable-shared --disable-ffp
lay --disable-ffserver --enable-memalign-hack --enable-libmp3lame --arch=x86 --e
nable-runtime-cpudetect --enable-w32threads --target-os=mingw32 --cross-prefix=i
686-mingw32-
  libavutil     50.36. 0 / 50.36. 0
  libavcore      0.16. 0 /  0.16. 0
  libavcodec    52.108. 0 / 52.108. 0
  libavformat   52.92. 0 / 52.92. 0
  libavdevice   52. 2. 3 / 52. 2. 3
  libavfilter    1.72. 0 /  1.72. 0
  libswscale     0.12. 0 /  0.12. 0
[matroska,webm @ 015ecd10] Estimating duration from bitrate, this may be inaccur
ate

Seems stream 0 codec frame rate differs from container frame rate: 180000.00 (18
0000/1) -> 1000.00 (1000/1)
Input #0, matroska,webm, from 'o:\Shared Videos\Inception.mkv':
  Duration: 02:28:07.92, start: 0.000000, bitrate: 1280 kb/s
    Stream #0.0(eng): Video: h264, yuv420p, 1920x800 [PAR 1:1 DAR 12:5], 23.98 f
ps, 1k tbr, 1k tbn, 180k tbc
    Stream #0.1(deu): Audio: ac3, 48000 Hz, 5.1, s16, 640 kb/s
    Stream #0.2(eng): Audio: ac3, 48000 Hz, 5.1, s16, 640 kb/s
At least one output file must be specified


  Code:
D:\Program Files\Serviio\lib>ffmpeg -i "o:\Shared Videos\Avatar_BR.mkv"
FFmpeg version UNKNOWN, Copyright (c) 2000-2011 the FFmpeg developers
  built on Jan 10 2011 21:46:22 with gcc 4.4.2
  configuration: --enable-static --disable-shared --disable-shared --disable-ffp
lay --disable-ffserver --enable-memalign-hack --enable-libmp3lame --arch=x86 --e
nable-runtime-cpudetect --enable-w32threads --target-os=mingw32 --cross-prefix=i
686-mingw32-
  libavutil     50.36. 0 / 50.36. 0
  libavcore      0.16. 0 /  0.16. 0
  libavcodec    52.108. 0 / 52.108. 0
  libavformat   52.92. 0 / 52.92. 0
  libavdevice   52. 2. 3 / 52. 2. 3
  libavfilter    1.72. 0 /  1.72. 0
  libswscale     0.12. 0 /  0.12. 0
[matroska,webm @ 015ecd10] max_analyze_duration reached
[matroska,webm @ 015ecd10] Estimating duration from bitrate, this may be inaccur
ate

Seems stream 0 codec frame rate differs from container frame rate: 47.95 (48000/
1001) -> 23.98 (48000/2002)
Input #0, matroska,webm, from 'o:\Shared Videos\Avatar_BR.mkv':
  Metadata:
    title           : Avatar_BD
  Duration: 02:41:41.69, start: 0.000000, bitrate: 1536 kb/s
    Chapter #0.0: start 0.000000, end 377.961000
    Metadata:
      title           : 00:00:00.000
    Chapter #0.1: start 377.961000, end 473.598000
    Metadata:
      title           : 00:06:17.961
    Chapter #0.2: start 473.598000, end 724.891000
    Metadata:
      title           : 00:07:53.598
    Chapter #0.3: start 724.891000, end 840.465000
    Metadata:
      title           : 00:12:04.891
    Chapter #0.4: start 840.465000, end 1200.574000
    Metadata:
      title           : 00:14:00.465
    Chapter #0.5: start 1200.574000, end 1440.230000
    Metadata:
      title           : 00:20:00.574
    Chapter #0.6: start 1440.230000, end 1613.278000
    Metadata:
      title           : 00:24:00.230
    Chapter #0.7: start 1613.278000, end 1901.900000
    Metadata:
      title           : 00:26:53.278
    Chapter #0.8: start 1901.900000, end 2013.428000
    Metadata:
      title           : 00:31:41.900
    Chapter #0.9: start 2013.428000, end 2143.850000
    Metadata:
      title           : 00:33:33.428
    Chapter #0.10: start 2143.850000, end 2611.859000
    Metadata:
      title           : 00:35:43.850
    Chapter #0.11: start 2611.859000, end 2963.627000
    Metadata:
      title           : 00:43:31.859
    Chapter #0.12: start 2963.627000, end 3269.975000
    Metadata:
      title           : 00:49:23.627
    Chapter #0.13: start 3269.975000, end 3596.051000
    Metadata:
      title           : 00:54:29.975
    Chapter #0.14: start 3596.051000, end 3910.198000
    Metadata:
      title           : 00:59:56.051
    Chapter #0.15: start 3910.198000, end 4296.417000
    Metadata:
      title           : 01:05:10.198
    Chapter #0.16: start 4296.417000, end 4511.006000
    Metadata:
      title           : 01:11:36.417
    Chapter #0.17: start 4511.006000, end 4829.116000
    Metadata:
      title           : 01:15:11.006
    Chapter #0.18: start 4829.116000, end 5081.910000
    Metadata:
      title           : 01:20:29.116
    Chapter #0.19: start 5081.910000, end 5764.801000
    Metadata:
      title           : 01:24:41.910
    Chapter #0.20: start 5764.801000, end 5875.786000
    Metadata:
      title           : 01:36:04.801
    Chapter #0.21: start 5875.786000, end 6273.100000
    Metadata:
      title           : 01:37:55.786
    Chapter #0.22: start 6273.100000, end 6495.489000
    Metadata:
      title           : 01:44:33.100
    Chapter #0.23: start 6495.489000, end 6833.868000
    Metadata:
      title           : 01:48:15.489
    Chapter #0.24: start 6833.868000, end 6932.884000
    Metadata:
      title           : 01:53:53.868
    Chapter #0.25: start 6932.884000, end 7118.820000
    Metadata:
      title           : 01:55:32.884
    Chapter #0.26: start 7118.820000, end 7325.568000
    Metadata:
      title           : 01:58:38.820
    Chapter #0.27: start 7325.568000, end 7533.859000
    Metadata:
      title           : 02:02:05.568
    Chapter #0.28: start 7533.859000, end 7801.835000
    Metadata:
      title           : 02:05:33.859
    Chapter #0.29: start 7801.835000, end 8167.284000
    Metadata:
      title           : 02:10:01.835
    Chapter #0.30: start 8167.284000, end 8390.841000
    Metadata:
      title           : 02:16:07.284
    Chapter #0.31: start 8390.841000, end 8750.325000
    Metadata:
      title           : 02:19:50.841
    Chapter #0.32: start 8750.325000, end 9074.065000
    Metadata:
      title           : 02:25:50.325
    Chapter #0.33: start 9074.065000, end 9305.296000
    Metadata:
      title           : 02:31:14.065
    Chapter #0.34: start 9305.296000, end 9701.692000
    Metadata:
      title           : 02:35:05.296
    Stream #0.0: Video: h264, yuv420p, 1920x1080 [PAR 1:1 DAR 16:9], 23.98 fps,
23.98 tbr, 1k tbn, 47.95 tbc
    Stream #0.1(ger): Audio: dca, 48000 Hz, 5.1, s16, 1536 kb/s
    Stream #0.2: Attachment: mjpeg
    Metadata:
      filename        : Poster
At least one output file must be specified


Those files play fine whith VLC or with twonky on my NAS. Any help apreciated.

bye,
dag0
<<

zip

User avatar

Serviio developer / Site Admin

Posts: 17079

Joined: Sat Oct 24, 2009 12:24 pm

Location: London, UK

Post Fri Mar 25, 2011 1:19 pm

Re: Most Files are not shown on my Samsung LE40C650 TV

The ffmpeg outputs are ok. It might take some time to add all the files. Keep checking the log. Otherwise enable debug logging, click Force refresh and send the log.
<<

dag0

Serviio newbie

Posts: 12

Joined: Sat Feb 26, 2011 3:04 pm

Location: Germany, Berlin

Post Fri Mar 25, 2011 2:46 pm

Re: Most Files are not shown on my Samsung LE40C650 TV

OK, thanks - you're right. Obviously I was to impatient! :) I didn't expect the media-scan last that long.

Other thing is, during playback of a mkv from my NAS on my TV my PC crashed. No message according to this in my event-log. I hope this was a unique event! :o
And: Playback is oftem stuttering. Some files less, some more. Normally this shouldn't happen? Works flawless when playing directly from the DLNA-Server on my NAS. PC, NAS and TV are all cabled to my router.
<<

zip

User avatar

Serviio developer / Site Admin

Posts: 17079

Joined: Sat Oct 24, 2009 12:24 pm

Location: London, UK

Post Fri Mar 25, 2011 2:52 pm

Re: Most Files are not shown on my Samsung LE40C650 TV

Stuttering: I don't experience any but obviously you have 1 more hop in your route.

NAS -> TV
vs
NAS -> PC (Serviio) -> TV

It still should work ok as you're on wired network.
<<

dag0

Serviio newbie

Posts: 12

Joined: Sat Feb 26, 2011 3:04 pm

Location: Germany, Berlin

Post Fri Mar 25, 2011 3:24 pm

Re: Most Files are not shown on my Samsung LE40C650 TV

Yes - this was also my thought. Don't know why this doesn't work, normaly those 2 hops should't be a problem! :(
<<

dag0

Serviio newbie

Posts: 12

Joined: Sat Feb 26, 2011 3:04 pm

Location: Germany, Berlin

Post Sun Mar 27, 2011 7:22 pm

Re: Most Files are not shown on my Samsung LE40C650 TV

I now installed twonky on my PC and there I do not exprience such "stuttering". I mean: with serviio I have complete interrupts (picture stands still), with twonky on my PC I have sort of "micro-stuttering" during pan shots which I don't experience with twonky on my NAS. I checked my cables (all CAT5) and tried others without success. :(
<<

zip

User avatar

Serviio developer / Site Admin

Posts: 17079

Joined: Sat Oct 24, 2009 12:24 pm

Location: London, UK

Post Sun Mar 27, 2011 8:06 pm

Re: Most Files are not shown on my Samsung LE40C650 TV

Is it possible that Twonky transcodes the file and lowers the bitrate?
<<

dag0

Serviio newbie

Posts: 12

Joined: Sat Feb 26, 2011 3:04 pm

Location: Germany, Berlin

Post Sun Mar 27, 2011 8:53 pm

Re: Most Files are not shown on my Samsung LE40C650 TV

I don't know why, but transcoding options for video and foto are grayed out on NAS and PC-Twonkyserver. So there obviously is no transcoding happening.
<<

Cerberus

User avatar

DLNA master

Posts: 4116

Joined: Sun Jan 02, 2011 5:20 pm

Location: Reading, UK

Post Mon Mar 28, 2011 11:59 am

Re: Most Files are not shown on my Samsung LE40C650 TV

dag0 wrote:I don't know why, but transcoding options for video and foto are grayed out on NAS and PC-Twonkyserver. So there obviously is no transcoding happening.


grayed out option just mean you cant change it doesnt mean its not doing it...
Phil Bennett
Beta Tester Group
Wiki | FAQ

Samsung LE40C750 LCD | Samsung BD-C5900 | Sony PS3 | Windows 7 |
HowTo: Provide supported formats of a device HowTo: Record a new ticket on Bitbucket
HowTo: Provide details of a video file that doesn't play HowTo: Turn on detailed logging
<<

dag0

Serviio newbie

Posts: 12

Joined: Sat Feb 26, 2011 3:04 pm

Location: Germany, Berlin

Post Mon Mar 28, 2011 2:07 pm

Re: Most Files are not shown on my Samsung LE40C650 TV

While playing a Full-HD-mkv twonky produces about max 5% CPU-load on my NAS. I suppose transcoding would produce a higher CPU-Load?
<<

zip

User avatar

Serviio developer / Site Admin

Posts: 17079

Joined: Sat Oct 24, 2009 12:24 pm

Location: London, UK

Post Mon Mar 28, 2011 2:17 pm

Re: Most Files are not shown on my Samsung LE40C650 TV

I suppose they disable transcoding on NAS to avoid high CPU usage, so you're right. I'm not sure why the stuttering accurs
<<

dag0

Serviio newbie

Posts: 12

Joined: Sat Feb 26, 2011 3:04 pm

Location: Germany, Berlin

Post Mon Mar 28, 2011 2:24 pm

Re: Most Files are not shown on my Samsung LE40C650 TV

Unfortunately transcoding is disabled on my PC-TwonkyServer too. But this gets off-topic in a serviio-forum! ;)

Return to Samsung

Who is online

Users browsing this forum: No registered users and 6 guests

Powered by phpBB © 2000, 2002, 2005, 2007 phpBB Group.
Designed by ST Software for PTF.