FAQ  •  Register  •  Login

mp4 not supported on Samsung TV D6100

<<

ciso

Serviio newbie

Posts: 5

Joined: Thu Apr 26, 2012 4:15 pm

Post Thu Apr 26, 2012 4:18 pm

mp4 not supported on Samsung TV D6100

Hi,
I installed ServiiO a couple of weeks ago and I think it's really great!
I have only one problem, I can't plya mp4 videos to my Samsung TV D6100 because I get the "Not Supported File Format" message.
This is my ffmpeg output:
  Code:
ffmpeg version 0.8.1-4:0.8.1-0ubuntu1, Copyright (c) 2000-2011 the Libav developers
  built on Mar 22 2012 05:29:10 with gcc 4.6.3
This program is not developed anymore and is only provided for compatibility. Use avconv instead (see Changelog for the list of incompatible changes).
Input #0, mov,mp4,m4a,3gp,3g2,mj2, from 'south.park.s16e07.hdtv.x264-compulsion.mp4':
  Metadata:
    major_brand     : isom
    minor_version   : 1
    compatible_brands: isomavc1
    creation_time   : 2012-04-26 02:33:23
  Duration: 00:21:41.37, start: 0.000000, bitrate: 472 kb/s
    Stream #0.0(und): Video: h264 (High), yuv420p, 720x404, 341 kb/s, 23.98 fps, 23.98 tbr, 96k tbn, 47.95 tbc
    Metadata:
      creation_time   : 2012-04-26 02:33:23
    Stream #0.1(und): Audio: aac, 48000 Hz, stereo, s16, 126 kb/s
    Metadata:
      creation_time   : 2012-04-26 02:33:24
At least one output file must be specified


No problem if I use an Android phone with Twonky as a bridge (ServiiO as server but using the smartphone to play the mp4 to the TV).
<<

zip

User avatar

Serviio developer / Site Admin

Posts: 17053

Joined: Sat Oct 24, 2009 12:24 pm

Location: London, UK

Post Sun Apr 29, 2012 10:50 pm

Re: mp4 not supported on Samsung TV D6100

Did you try it without the phone? Otherwise assign the Samsung c/d profile to the IP of the phone in the console.
<<

ciso

Serviio newbie

Posts: 5

Joined: Thu Apr 26, 2012 4:15 pm

Post Mon Apr 30, 2012 6:14 am

Re: mp4 not supported on Samsung TV D6100

zip wrote:Did you try it without the phone? Otherwise assign the Samsung c/d profile to the IP of the phone in the console.

Yes,
the prolem it's only if I use directly the Serviio service from the Samsung TV.
The Samsung C/D profile is automaticaly assigned from serviio.

Return to Samsung

Who is online

Users browsing this forum: No registered users and 10 guests

Powered by phpBB © 2000, 2002, 2005, 2007 phpBB Group.
Designed by ST Software for PTF.