FAQ  •  Register  •  Login

Progdvb stream under DLNA

<<

blase

Streaming enthusiast

Posts: 33

Joined: Thu Jan 19, 2012 8:55 pm

Post Mon Jan 28, 2013 9:47 pm

Progdvb stream under DLNA

Hi all

I have a small problem

He had set the option to view DVB emissions from progdbv through the serviio.

Get set and be able to see on my tv, but suddenly stopped working, I changed codecs updated version of ProgDVB and serviio. But I have not got it working again.

I have found that works with VLC streaming so the emission from ProgDVB goes well.Note that the streaming is internal local network is not an Internet source

logs attached

ffmpeg log
  Code:
C:\Program Files\Serviio\lib>ffmpeg.exe -i "http://192.168.2.3:10999/list.m3u"
ffmpeg version N-49352-gc46943e Copyright (c) 2000-2013 the FFmpeg developers
  built on Jan 26 2013 12:12:14 with gcc 4.7.2 (GCC)
  configuration: --enable-gpl --enable-version3 --disable-w32threads --enable-av
isynth --enable-bzlib --enable-fontconfig --enable-frei0r --enable-gnutls --enab
le-libass --enable-libbluray --enable-libcaca --enable-libfreetype --enable-libg
sm --enable-libmp3lame --enable-libopencore-amrnb --enable-libopencore-amrwb --e
nable-libopenjpeg --enable-libopus --enable-librtmp --enable-libschroedinger --e
nable-libspeex --enable-libtheora --enable-libtwolame --enable-libvo-aacenc --en
able-libvo-amrwbenc --enable-libvorbis --enable-libvpx --enable-libx264 --enable
-libxavs --enable-libxvid --enable-zlib
  libavutil      52. 17.100 / 52. 17.100
  libavcodec     54. 91.100 / 54. 91.100
  libavformat    54. 61.104 / 54. 61.104
  libavdevice    54.  3.102 / 54.  3.102
  libavfilter     3. 34.101 /  3. 34.101
  libswscale      2.  2.100 /  2.  2.100
  libswresample   0. 17.102 /  0. 17.102
  libpostproc    52.  2.100 / 52.  2.100
[mpeg2video @ 000000000221f620] 0x0 is invalid
    Last message repeated 15 times
[mpegts @ 000000000221b4c0] max_analyze_duration 5000000 reached at 5016000 micr
oseconds
[mpegts @ 000000000221b4c0] Estimating duration from bitrate, this may be inaccu
rate
Input #0, mpegts, from 'http://192.168.2.3:10999/list.m3u':
  Duration: N/A, start: 92770.602511, bitrate: 288 kb/s
  Program 1059
  No Program
    Stream #0:0[0x65]: Video: mpeg2video (Main) ([2][0][0][0] / 0x0002), yuv420p
, 720x576 [SAR 64:45 DAR 16:9], 25 fps, 25 tbr, 90k tbn, 50 tbc
    Stream #0:1[0x67]: Audio: mp2 ([4][0][0][0] / 0x0004), 48000 Hz, stereo, s16
p, 192 kb/s
    Stream #0:2[0x68]: Audio: mp2 ([4][0][0][0] / 0x0004), 48000 Hz, stereo, s16
p, 96 kb/s
    Stream #0:3[0x66](spa): Subtitle: dvb_teletext ([6][0][0][0] / 0x0006)
At least one output file must be specified


Serviio log
  Code:
2013-01-28 22:31:05,421 INFO  [MediaServer] ------------------------------------------------------------------------
2013-01-28 22:31:05,422 INFO  [MediaServer] Serviio DLNA media streaming server v 1.0.1 (rev. 6dbf7c6e334f+)
2013-01-28 22:31:05,423 INFO  [MediaServer] Petr Nejedly 2009-2012
2013-01-28 22:31:05,423 INFO  [MediaServer] http://www.serviio.org
2013-01-28 22:31:05,423 INFO  [MediaServer]
2013-01-28 22:31:05,423 INFO  [MediaServer] Java 1.7.0_11-Oracle Corporation
2013-01-28 22:31:05,423 INFO  [MediaServer] OS Windows 7 amd64 6.1
2013-01-28 22:31:05,423 INFO  [MediaServer] File encoding: windows-1252
2013-01-28 22:31:05,426 INFO  [MediaServer] Headless mode enabled: true
2013-01-28 22:31:05,427 INFO  [MediaServer] User home dir: C:\
2013-01-28 22:31:05,427 INFO  [MediaServer] Temp dir: C:\Windows\TEMP\
2013-01-28 22:31:05,427 INFO  [MediaServer] ------------------------------------------------------------------------
2013-01-28 22:31:05,939 INFO  [WebServer] Socket buffer set to 65535 bytes
2013-01-28 22:31:05,941 INFO  [RestletServer] Starting Restlet server (/rest) exposed on port 23423
2013-01-28 22:31:06,109 INFO  [RestletServer] Starting Restlet server (/cds) exposed on port 23424
2013-01-28 22:31:06,112 INFO  [RestletServer] Starting Restlet server (/mediabrowser) exposed on port 23424
2013-01-28 22:31:06,194 INFO  [DBSchemaUpdateExecutor] Checking if DB schema needs to be updated
2013-01-28 22:31:10,203 INFO  [MediaServer] ------------------------------------------------------------------------
2013-01-28 22:31:10,203 INFO  [MediaServer] License: FREE
2013-01-28 22:31:10,203 INFO  [MediaServer] ------------------------------------------------------------------------
2013-01-28 22:31:12,156 INFO  [ProfilesDefinitionParser] Parsing Profiles definition
2013-01-28 22:31:16,560 INFO  [ProfilesDefinitionParser] Added profile 'Generic DLNA profile' (id=1)
2013-01-28 22:31:19,149 INFO  [ProfilesDefinitionParser] Added profile 'Samsung TV (B-series)' (id=2)
2013-01-28 22:31:20,348 INFO  [ProfilesDefinitionParser] Added profile 'Xbox 360' (id=3)
2013-01-28 22:31:22,072 INFO  [ProfilesDefinitionParser] Added profile 'Playstation 3' (id=4)
2013-01-28 22:31:23,200 INFO  [ProfilesDefinitionParser] Added profile 'Samsung TV (A-series)' (id=5)
2013-01-28 22:31:23,789 INFO  [ProfilesDefinitionParser] Added profile 'DirecTV HD-DVR' (id=6)
2013-01-28 22:31:25,875 INFO  [ProfilesDefinitionParser] Added profile 'Samsung TV / player (C/D/E-series)' (id=7)
2013-01-28 22:31:25,985 INFO  [ProfilesDefinitionParser] Added profile 'LG TV / player' (id=8)
2013-01-28 22:31:28,348 INFO  [ProfilesDefinitionParser] Added profile 'Sony Bravia TV (2012)' (id=sony2012)
2013-01-28 22:31:31,346 INFO  [ProfilesDefinitionParser] Added profile 'Sony BD Player / SMP' (id=10)
2013-01-28 22:31:32,261 INFO  [ProfilesDefinitionParser] Added profile 'Toshiba REGZA' (id=13)
2013-01-28 22:31:32,916 INFO  [ProfilesDefinitionParser] Added profile 'WDTV Live' (id=14)
2013-01-28 22:31:33,013 INFO  [ProfilesDefinitionParser] Added profile 'LaCie LaCinema Media Player' (id=15)
2013-01-28 22:31:33,439 INFO  [ProfilesDefinitionParser] Added profile 'Manta WIFI Centre' (id=16)
2013-01-28 22:31:33,615 INFO  [ProfilesDefinitionParser] Added profile 'Pure Flow' (id=17)
2013-01-28 22:31:39,663 INFO  [ProfilesDefinitionParser] Added profile 'Sharp Aquos' (id=18)
2013-01-28 22:31:39,835 INFO  [ProfilesDefinitionParser] Added profile 'Sony Bravia TV (2011)' (id=sony2011)
2013-01-28 22:31:40,796 INFO  [ProfilesDefinitionParser] Added profile 'Sony Bravia TV (2010)' (id=sony2010)
2013-01-28 22:31:41,831 INFO  [ProfilesDefinitionParser] Added profile 'Philips' (id=20)
2013-01-28 22:31:42,239 INFO  [ProfilesDefinitionParser] Added profile 'Sony Bravia TV (2009)' (id=sony2009)
2013-01-28 22:31:42,457 INFO  [ProfilesDefinitionParser] Added profile 'Denon AVR' (id=22)
2013-01-28 22:31:44,424 INFO  [ProfilesDefinitionParser] Added profile 'Panasonic Viera G/GT/DT/UT/VT (2011/2012)' (id=viera2011a)
2013-01-28 22:31:44,709 INFO  [ProfilesDefinitionParser] Added profile 'Panasonic Viera E/S/ST/VT (2011)' (id=viera2011)
2013-01-28 22:31:45,059 INFO  [ProfilesDefinitionParser] Added profile 'Panasonic Viera (2010)' (id=viera2010)
2013-01-28 22:31:45,612 INFO  [ProfilesDefinitionParser] Added profile 'Sony Bravia TV (2012) - US' (id=sony2012us)
2013-01-28 22:31:46,059 INFO  [ProfilesDefinitionParser] Added profile 'Sony Bravia TV (2011) - US' (id=sony2011us)
2013-01-28 22:31:46,179 INFO  [ProfilesDefinitionParser] Parsing Profiles definition
2013-01-28 22:31:47,581 INFO  [ProfilesDefinitionParser] Added profile 'Flash player' (id=flv_player)
2013-01-28 22:31:49,055 INFO  [ProfilesDefinitionParser] Added profile 'ServiiGo' (id=serviigo)
2013-01-28 22:31:53,298 INFO  [Device] Created UPnP Device with UUID: 800c3f2c-1ec3-3e02-a28a-300f31dcb035, bound address: 192.168.2.3
2013-01-28 22:31:53,376 INFO  [PluginCompilerThread] Looking for plugins at C:\Program Files\Serviio\bin\..\plugins
2013-01-28 22:31:53,409 INFO  [UpdateChecker] Checking if a new version is available
2013-01-28 22:31:53,802 INFO  [AbstractTranscodingDeliveryEngine] Cleaning transcode engine and its data
2013-01-28 22:31:54,029 INFO  [DiscoveryAdvertisementNotifier] Starting DiscoveryAdvertisementNotifier
2013-01-28 22:31:54,039 INFO  [RendererExpirationChecker] Starting RendererExpirationChecker
2013-01-28 22:31:54,039 INFO  [RendererSearchSender] Searching for Renderer devices
2013-01-28 22:31:54,110 INFO  [EventDispatcher] Starting EventDispatcher
2013-01-28 22:31:54,111 INFO  [EventSubscriptionExpirationChecker] Starting EventSubscriptionExpirationChecker
2013-01-28 22:31:54,112 INFO  [WebServer] WebServer starting on port 8895
2013-01-28 22:31:54,458 INFO  [DiscoverySSDPMessageListener] Starting DiscoverySSDPMessageListener using interface eth3 (Controladora integrada Broadcom 440x 10/100) and address 192.168.2.3, timeout = 0
2013-01-28 22:31:58,763 INFO  [PluginCompilerThread] Started looking for plugins
2013-01-28 22:32:07,763 INFO  [PluginCompilerThread] Added Web Resouce plugin HaHaSport (HaHaSport.groovy)
2013-01-28 22:32:08,453 INFO  [PluginCompilerThread] Added Feed plugin LiveFeeds (LiveFeeds.groovy)
2013-01-28 22:32:08,916 INFO  [PluginCompilerThread] Added Web Resouce plugin Shoutcast (Shoutcast.groovy)
2013-01-28 22:32:13,483 INFO  [PluginCompilerThread] Added Web Resouce plugin ustream.tv (USTREAM.groovy)
2013-01-28 22:32:28,332 INFO  [LibraryAdditionsCheckerThread] Started looking for newly added files
2013-01-28 22:32:28,335 INFO  [FeedUpdaterThread] Started looking for information about online resources
2013-01-28 22:32:28,337 INFO  [PlaylistMaintainerThread] Started looking playlist changes
2013-01-28 22:32:28,339 INFO  [LibraryUpdatesCheckerThread] Started looking for updates to currently shared files



Thanks and forgive me for my English
<<

blase

Streaming enthusiast

Posts: 33

Joined: Thu Jan 19, 2012 8:55 pm

Post Wed Jan 30, 2013 10:38 am

Re: Progdvb stream under DLNA

Any ideas
<<

Illico

User avatar

DLNA master

Posts: 4645

Joined: Fri Jul 23, 2010 8:08 am

Location: France

Post Wed Jan 30, 2013 10:47 am

Re: Progdvb stream under DLNA

What is your TV model ?

Could you enable detailed serviio logging (see signatures links) ?

How do you use this URL "http://192.168.2.3:10999/list.m3u", do you add it on serviio online source as a webressource or live resource ?
Illico
Sony 2010 KDL-46EX501 | BDP-S373 | SMP-N100 | Windows 8-i7 | Network DD HD-CE1.5TLU2 | Livebox2-UHD86 | ServiiDroid | ServiiGo | BubbleUPnP
Serviio beta tester - Moderator
<<

blase

Streaming enthusiast

Posts: 33

Joined: Thu Jan 19, 2012 8:55 pm

Post Wed Jan 30, 2013 11:21 am

Re: Progdvb stream under DLNA

What is your TV model ?
Is a media player (Wyplayer) and I've also tried it with the media player AivX-370HDW

Could you enable detailed serviio logging (see signatures links) ?
Log
  Code:
2013-01-30 12:16:38,658 DEBUG [ApplicationInstanceManager] Listening for application instances on socket 44331
2013-01-30 12:16:38,679 INFO  [MediaServer] ------------------------------------------------------------------------
2013-01-30 12:16:38,679 INFO  [MediaServer] Serviio DLNA media streaming server v 1.0.1 (rev. 6dbf7c6e334f+)
2013-01-30 12:16:38,679 INFO  [MediaServer] Petr Nejedly 2009-2012
2013-01-30 12:16:38,679 INFO  [MediaServer] http://www.serviio.org
2013-01-30 12:16:38,679 INFO  [MediaServer]
2013-01-30 12:16:38,679 INFO  [MediaServer] Java 1.7.0_11-Oracle Corporation
2013-01-30 12:16:38,679 INFO  [MediaServer] OS Windows 7 amd64 6.1
2013-01-30 12:16:38,679 INFO  [MediaServer] File encoding: windows-1252
2013-01-30 12:16:38,680 INFO  [MediaServer] Headless mode enabled: true
2013-01-30 12:16:38,680 INFO  [MediaServer] User home dir: C:\
2013-01-30 12:16:38,680 INFO  [MediaServer] Temp dir: C:\Windows\TEMP\
2013-01-30 12:16:38,680 INFO  [MediaServer] ------------------------------------------------------------------------
2013-01-30 12:16:38,967 INFO  [WebServer] Socket buffer set to 65535 bytes
2013-01-30 12:16:38,969 INFO  [RestletServer] Starting Restlet server (/rest) exposed on port 23423
2013-01-30 12:16:39,046 INFO  [RestletServer] Starting Restlet server (/cds) exposed on port 23424
2013-01-30 12:16:39,047 INFO  [RestletServer] Starting Restlet server (/mediabrowser) exposed on port 23424
2013-01-30 12:16:39,098 INFO  [DBSchemaUpdateExecutor] Checking if DB schema needs to be updated
2013-01-30 12:16:39,222 DEBUG [DBLogDAOImpl] Checking if script 'script-0.1.sql' has been run
2013-01-30 12:16:40,993 DEBUG [DBLogDAOImpl] Checking if script 'script-0.1.1.sql' has been run
2013-01-30 12:16:40,994 DEBUG [DBLogDAOImpl] Checking if script 'script-0.2.sql' has been run
2013-01-30 12:16:40,995 DEBUG [DBLogDAOImpl] Checking if script 'script-0.3.1.sql' has been run
2013-01-30 12:16:40,997 DEBUG [DBLogDAOImpl] Checking if script 'script-0.4.sql' has been run
2013-01-30 12:16:40,998 DEBUG [DBLogDAOImpl] Checking if script 'script-0.4.1.sql' has been run
2013-01-30 12:16:40,999 DEBUG [DBLogDAOImpl] Checking if script 'script-0.4.2.sql' has been run
2013-01-30 12:16:41,000 DEBUG [DBLogDAOImpl] Checking if script 'script-0.5.sql' has been run
2013-01-30 12:16:41,002 DEBUG [DBLogDAOImpl] Checking if script 'script-0.5.1.sql' has been run
2013-01-30 12:16:41,003 DEBUG [DBLogDAOImpl] Checking if script 'script-0.6.sql' has been run
2013-01-30 12:16:41,004 DEBUG [DBLogDAOImpl] Checking if script 'script-0.6.1.sql' has been run
2013-01-30 12:16:41,005 DEBUG [DBLogDAOImpl] Checking if script 'script-0.6.2.sql' has been run
2013-01-30 12:16:41,007 DEBUG [DBLogDAOImpl] Checking if script 'script-1.0.sql' has been run
2013-01-30 12:16:41,041 DEBUG [ConfigEntryDAOImpl] Reading all ConfigEntries
2013-01-30 12:16:41,431 INFO  [MediaServer] ------------------------------------------------------------------------
2013-01-30 12:16:41,431 INFO  [MediaServer] License: FREE
2013-01-30 12:16:41,431 INFO  [MediaServer] ------------------------------------------------------------------------
2013-01-30 12:16:42,558 INFO  [ProfilesDefinitionParser] Parsing Profiles definition
2013-01-30 12:16:42,649 DEBUG [ProfilesDefinitionParser] Parsing profile definition for profile 1
2013-01-30 12:16:44,399 INFO  [ProfilesDefinitionParser] Added profile 'Generic DLNA profile' (id=1)
2013-01-30 12:16:44,401 DEBUG [ProfilesDefinitionParser] Parsing profile definition for profile 2
2013-01-30 12:16:45,500 INFO  [ProfilesDefinitionParser] Added profile 'Samsung TV (B-series)' (id=2)
2013-01-30 12:16:45,502 DEBUG [ProfilesDefinitionParser] Parsing profile definition for profile 3
2013-01-30 12:16:46,042 INFO  [ProfilesDefinitionParser] Added profile 'Xbox 360' (id=3)
2013-01-30 12:16:46,044 DEBUG [ProfilesDefinitionParser] Parsing profile definition for profile 4
2013-01-30 12:16:46,861 INFO  [ProfilesDefinitionParser] Added profile 'Playstation 3' (id=4)
2013-01-30 12:16:46,863 DEBUG [ProfilesDefinitionParser] Parsing profile definition for profile 5
2013-01-30 12:16:47,281 INFO  [ProfilesDefinitionParser] Added profile 'Samsung TV (A-series)' (id=5)
2013-01-30 12:16:47,283 DEBUG [ProfilesDefinitionParser] Parsing profile definition for profile 6
2013-01-30 12:16:47,731 INFO  [ProfilesDefinitionParser] Added profile 'DirecTV HD-DVR' (id=6)
2013-01-30 12:16:47,733 DEBUG [ProfilesDefinitionParser] Parsing profile definition for profile 7
2013-01-30 12:16:48,741 INFO  [ProfilesDefinitionParser] Added profile 'Samsung TV / player (C/D/E-series)' (id=7)
2013-01-30 12:16:48,743 DEBUG [ProfilesDefinitionParser] Parsing profile definition for profile 8
2013-01-30 12:16:48,804 INFO  [ProfilesDefinitionParser] Added profile 'LG TV / player' (id=8)
2013-01-30 12:16:48,807 DEBUG [ProfilesDefinitionParser] Parsing profile definition for profile sony2012
2013-01-30 12:16:50,144 INFO  [ProfilesDefinitionParser] Added profile 'Sony Bravia TV (2012)' (id=sony2012)
2013-01-30 12:16:50,147 DEBUG [ProfilesDefinitionParser] Parsing profile definition for profile 10
2013-01-30 12:16:51,686 INFO  [ProfilesDefinitionParser] Added profile 'Sony BD Player / SMP' (id=10)
2013-01-30 12:16:51,690 DEBUG [ProfilesDefinitionParser] Parsing profile definition for profile 13
2013-01-30 12:16:52,366 INFO  [ProfilesDefinitionParser] Added profile 'Toshiba REGZA' (id=13)
2013-01-30 12:16:52,369 DEBUG [ProfilesDefinitionParser] Parsing profile definition for profile 14
2013-01-30 12:16:52,753 INFO  [ProfilesDefinitionParser] Added profile 'WDTV Live' (id=14)
2013-01-30 12:16:52,756 DEBUG [ProfilesDefinitionParser] Parsing profile definition for profile 15
2013-01-30 12:16:52,816 INFO  [ProfilesDefinitionParser] Added profile 'LaCie LaCinema Media Player' (id=15)
2013-01-30 12:16:52,820 DEBUG [ProfilesDefinitionParser] Parsing profile definition for profile 16
2013-01-30 12:16:53,086 INFO  [ProfilesDefinitionParser] Added profile 'Manta WIFI Centre' (id=16)
2013-01-30 12:16:53,089 DEBUG [ProfilesDefinitionParser] Parsing profile definition for profile 17
2013-01-30 12:16:53,194 INFO  [ProfilesDefinitionParser] Added profile 'Pure Flow' (id=17)
2013-01-30 12:16:53,197 DEBUG [ProfilesDefinitionParser] Parsing profile definition for profile 18
2013-01-30 12:16:53,696 INFO  [ProfilesDefinitionParser] Added profile 'Sharp Aquos' (id=18)
2013-01-30 12:16:53,699 DEBUG [ProfilesDefinitionParser] Parsing profile definition for profile sony2011
2013-01-30 12:16:53,793 INFO  [ProfilesDefinitionParser] Added profile 'Sony Bravia TV (2011)' (id=sony2011)
2013-01-30 12:16:53,796 DEBUG [ProfilesDefinitionParser] Parsing profile definition for profile sony2010
2013-01-30 12:16:54,299 INFO  [ProfilesDefinitionParser] Added profile 'Sony Bravia TV (2010)' (id=sony2010)
2013-01-30 12:16:54,302 DEBUG [ProfilesDefinitionParser] Parsing profile definition for profile 20
2013-01-30 12:16:54,858 INFO  [ProfilesDefinitionParser] Added profile 'Philips' (id=20)
2013-01-30 12:16:54,862 DEBUG [ProfilesDefinitionParser] Parsing profile definition for profile sony2009
2013-01-30 12:16:55,087 INFO  [ProfilesDefinitionParser] Added profile 'Sony Bravia TV (2009)' (id=sony2009)
2013-01-30 12:16:55,091 DEBUG [ProfilesDefinitionParser] Parsing profile definition for profile 22
2013-01-30 12:16:55,198 INFO  [ProfilesDefinitionParser] Added profile 'Denon AVR' (id=22)
2013-01-30 12:16:55,201 DEBUG [ProfilesDefinitionParser] Parsing profile definition for profile viera2011a
2013-01-30 12:16:56,235 INFO  [ProfilesDefinitionParser] Added profile 'Panasonic Viera G/GT/DT/UT/VT (2011/2012)' (id=viera2011a)
2013-01-30 12:16:56,238 DEBUG [ProfilesDefinitionParser] Parsing profile definition for profile viera2011
2013-01-30 12:16:56,389 INFO  [ProfilesDefinitionParser] Added profile 'Panasonic Viera E/S/ST/VT (2011)' (id=viera2011)
2013-01-30 12:16:56,393 DEBUG [ProfilesDefinitionParser] Parsing profile definition for profile viera2010
2013-01-30 12:16:56,536 INFO  [ProfilesDefinitionParser] Added profile 'Panasonic Viera (2010)' (id=viera2010)
2013-01-30 12:16:56,539 DEBUG [ProfilesDefinitionParser] Parsing profile definition for profile sony2012us
2013-01-30 12:16:56,739 INFO  [ProfilesDefinitionParser] Added profile 'Sony Bravia TV (2012) - US' (id=sony2012us)
2013-01-30 12:16:56,743 DEBUG [ProfilesDefinitionParser] Parsing profile definition for profile sony2011us
2013-01-30 12:16:56,951 INFO  [ProfilesDefinitionParser] Added profile 'Sony Bravia TV (2011) - US' (id=sony2011us)
2013-01-30 12:16:57,018 INFO  [ProfilesDefinitionParser] Parsing Profiles definition
2013-01-30 12:16:57,026 DEBUG [ProfilesDefinitionParser] Parsing profile definition for profile flv_player
2013-01-30 12:16:57,908 INFO  [ProfilesDefinitionParser] Added profile 'Flash player' (id=flv_player)
2013-01-30 12:16:57,910 DEBUG [ProfilesDefinitionParser] Parsing profile definition for profile serviigo
2013-01-30 12:16:58,606 INFO  [ProfilesDefinitionParser] Added profile 'ServiiGo' (id=serviigo)
2013-01-30 12:17:00,423 INFO  [Device] Created UPnP Device with UUID: 800c3f2c-1ec3-3e02-a28a-300f31dcb035, bound address: 192.168.2.3
2013-01-30 12:17:00,506 INFO  [PluginCompilerThread] Looking for plugins at C:\Program Files\Serviio\bin\..\plugins
2013-01-30 12:17:00,518 INFO  [UpdateChecker] Checking if a new version is available
2013-01-30 12:17:00,523 DEBUG [FFMPEGWrapper] Invoking FFMPEG to check if it exists of path C:\Program Files\Serviio\bin\\..\lib/ffmpeg.exe
2013-01-30 12:17:00,528 DEBUG [ProcessExecutor] Starting C:\Program Files\Serviio\bin\\..\lib/ffmpeg.exe
2013-01-30 12:17:00,528 INFO  [PluginCompilerThread] Started looking for plugins
2013-01-30 12:17:00,530 DEBUG [PluginCompilerThread] Starting plugin HaHaSport.groovy compilation
2013-01-30 12:17:00,915 INFO  [AbstractTranscodingDeliveryEngine] Cleaning transcode engine and its data
2013-01-30 12:17:01,026 INFO  [WebServer] WebServer starting on port 8895
2013-01-30 12:17:01,067 DEBUG [DiscoveryManager] UPNP device 800c3f2c-1ec3-3e02-a28a-300f31dcb035 (192.168.2.3) is available
2013-01-30 12:17:01,136 INFO  [DiscoverySSDPMessageListener] Starting DiscoverySSDPMessageListener using interface eth3 (Controladora integrada Broadcom 440x 10/100) and address 192.168.2.3, timeout = 0
2013-01-30 12:17:01,137 INFO  [DiscoveryAdvertisementNotifier] Starting DiscoveryAdvertisementNotifier
2013-01-30 12:17:01,146 INFO  [RendererExpirationChecker] Starting RendererExpirationChecker
2013-01-30 12:17:01,147 INFO  [RendererSearchSender] Searching for Renderer devices
2013-01-30 12:17:01,164 INFO  [EventDispatcher] Starting EventDispatcher
2013-01-30 12:17:01,164 INFO  [EventSubscriptionExpirationChecker] Starting EventSubscriptionExpirationChecker
2013-01-30 12:17:02,635 DEBUG [DiscoveryAdvertisementNotifier] Multicasting SSDP alive using interface eth3 (Controladora integrada Broadcom 440x 10/100) and address 192.168.2.3, timeout = 0
2013-01-30 12:17:02,663 DEBUG [DiscoveryAdvertisementNotifier] Sending 6 'alive' messages describing device 800c3f2c-1ec3-3e02-a28a-300f31dcb035
2013-01-30 12:17:02,763 DEBUG [WebServer] Incoming connection from /192.168.2.5:46858
2013-01-30 12:17:02,769 DEBUG [RendererDAOImpl] Reading a Renderer with ip address 192.168.2.5
2013-01-30 12:17:02,889 DEBUG [DeviceDescriptionRequestHandler] DeviceDescription request received for device 800c3f2c-1ec3-3e02-a28a-300f31dcb035 from 192.168.2.5 (headers = [User-Agent: Wybox/0.95 UPnP/1.0 DLNADOC/1.50 Portable SDK for UPnP devices/1.4.6,Host: 192.168.2.3:8895,Accept: */*])
2013-01-30 12:17:02,889 DEBUG [RendererDAOImpl] Reading a Renderer with ip address 192.168.2.5
2013-01-30 12:17:02,891 DEBUG [RendererManager] Looking for a renderer profile for Http headers: [User-Agent: Wybox/0.95 UPnP/1.0 DLNADOC/1.50 Portable SDK for UPnP devices/1.4.6,Host: 192.168.2.3:8895,Accept: */*]
2013-01-30 12:17:02,894 DEBUG [RendererDAOImpl] Reading a Renderer with ip address 192.168.2.5
2013-01-30 12:17:03,685 DEBUG [DeviceDescriptionRequestHandler] Sending DeviceDescription XML back using profile 'Generic DLNA profile'
2013-01-30 12:17:03,727 DEBUG [WebServer] Incoming connection from /192.168.2.5:46859
2013-01-30 12:17:03,728 DEBUG [RendererDAOImpl] Reading a Renderer with ip address 192.168.2.5
2013-01-30 12:17:03,729 DEBUG [ServiceDescriptionRequestHandler] ServiceDescription request received for service X_MS_MediaReceiverRegistrar
2013-01-30 12:17:03,741 DEBUG [ServiceDescriptionRequestHandler] Sending ServiceDescription XML back
2013-01-30 12:17:03,780 DEBUG [WebServer] Incoming connection from /192.168.2.5:46860
2013-01-30 12:17:03,781 DEBUG [RendererDAOImpl] Reading a Renderer with ip address 192.168.2.5
2013-01-30 12:17:03,782 DEBUG [ServiceDescriptionRequestHandler] ServiceDescription request received for service ConnectionManager
2013-01-30 12:17:03,865 DEBUG [ServiceDescriptionRequestHandler] Sending ServiceDescription XML back
2013-01-30 12:17:03,904 DEBUG [WebServer] Incoming connection from /192.168.2.5:46861
2013-01-30 12:17:03,905 DEBUG [RendererDAOImpl] Reading a Renderer with ip address 192.168.2.5
2013-01-30 12:17:03,907 DEBUG [ServiceDescriptionRequestHandler] ServiceDescription request received for service ContentDirectory
2013-01-30 12:17:03,951 DEBUG [ServiceDescriptionRequestHandler] Sending ServiceDescription XML back
2013-01-30 12:17:04,523 DEBUG [DiscoveryAdvertisementNotifier] Will advertise again in 00:00:10
2013-01-30 12:17:04,834 DEBUG [RendererSearchSender] Multicasting SSDP M-SEARCH using interface eth3 (Controladora integrada Broadcom 440x 10/100) and address 192.168.2.3, timeout = 0
2013-01-30 12:17:04,835 DEBUG [RendererSearchSender] Sending 1 'm-search' messages
2013-01-30 12:17:04,836 DEBUG [DiscoverySSDPMessageListener] Received a valid M-SEARCH message for search target urn:schemas-upnp-org:device:MediaRenderer:1 from address /192.168.2.3:57975
2013-01-30 12:17:04,836 DEBUG [RendererDAOImpl] Reading a Renderer with ip address 192.168.2.3
2013-01-30 12:17:04,841 DEBUG [DiscoverySSDPMessageListener] Received a valid M-SEARCH message for search target urn:schemas-upnp-org:device:MediaRenderer:1 from address /192.168.2.3:57975
2013-01-30 12:17:04,841 DEBUG [RendererDAOImpl] Reading a Renderer with ip address 192.168.2.3
2013-01-30 12:17:04,843 DEBUG [DiscoverySSDPMessageListener] Received a valid M-SEARCH message for search target urn:schemas-upnp-org:device:MediaRenderer:1 from address /192.168.2.3:57975
2013-01-30 12:17:04,843 DEBUG [RendererDAOImpl] Reading a Renderer with ip address 192.168.2.3
2013-01-30 12:17:07,787 INFO  [PluginCompilerThread] Added Web Resouce plugin HaHaSport (HaHaSport.groovy)
2013-01-30 12:17:07,787 DEBUG [PluginCompilerThread] Starting plugin LiveFeeds.groovy compilation
2013-01-30 12:17:08,079 INFO  [PluginCompilerThread] Added Feed plugin LiveFeeds (LiveFeeds.groovy)
2013-01-30 12:17:08,079 DEBUG [PluginCompilerThread] Starting plugin Shoutcast.groovy compilation
2013-01-30 12:17:08,296 INFO  [PluginCompilerThread] Added Web Resouce plugin Shoutcast (Shoutcast.groovy)
2013-01-30 12:17:08,297 DEBUG [PluginCompilerThread] Starting plugin USTREAM.groovy compilation
2013-01-30 12:17:09,134 INFO  [PluginCompilerThread] Added Web Resouce plugin ustream.tv (USTREAM.groovy)
2013-01-30 12:17:10,845 DEBUG [RendererSearchSender] Finished searching for Renderer devices
2013-01-30 12:17:15,936 DEBUG [DiscoveryAdvertisementNotifier] Multicasting SSDP alive using interface eth3 (Controladora integrada Broadcom 440x 10/100) and address 192.168.2.3, timeout = 0
2013-01-30 12:17:15,937 DEBUG [DiscoveryAdvertisementNotifier] Sending 6 'alive' messages describing device 800c3f2c-1ec3-3e02-a28a-300f31dcb035
2013-01-30 12:17:17,746 DEBUG [DiscoveryAdvertisementNotifier] Will advertise again in 00:00:10
2013-01-30 12:17:29,120 DEBUG [DiscoveryAdvertisementNotifier] Multicasting SSDP alive using interface eth3 (Controladora integrada Broadcom 440x 10/100) and address 192.168.2.3, timeout = 0
2013-01-30 12:17:29,121 DEBUG [DiscoveryAdvertisementNotifier] Sending 6 'alive' messages describing device 800c3f2c-1ec3-3e02-a28a-300f31dcb035
2013-01-30 12:17:30,878 INFO  [FeedUpdaterThread] Started looking for information about online resources
2013-01-30 12:17:30,878 DEBUG [FeedUpdaterThread] Checking for new and expired online resources
2013-01-30 12:17:30,884 DEBUG [OnlineRepositoryDAOImpl] Reading all OnlineRepositories
2013-01-30 12:17:30,887 INFO  [LibraryAdditionsCheckerThread] Started looking for newly added files
2013-01-30 12:17:30,887 INFO  [LibraryUpdatesCheckerThread] Started looking for updates to currently shared files
2013-01-30 12:17:30,888 INFO  [PlaylistMaintainerThread] Started looking playlist changes
2013-01-30 12:17:30,922 DEBUG [DiscoveryAdvertisementNotifier] Will advertise again in 00:00:59
2013-01-30 12:17:30,932 DEBUG [PlaylistDAOImpl] Reading all Playlists
2013-01-30 12:17:30,963 DEBUG [RepositoryDAOImpl] Reading all Repositories
2013-01-30 12:17:30,999 DEBUG [RepositoryDAOImpl] Reading all Repositories
2013-01-30 12:17:31,067 DEBUG [OnlineRepositoryDAOImpl] Reading an OnlineRepository (id = 1)
2013-01-30 12:17:31,112 DEBUG [OnlineContentCacheDecorator] Stored online content 'http://192.168.2.3:10999/list.m3u' in the cache (online_feeds), returning it

How do you use this URL "http://192.168.2.3:10999/list.m3u", do you add it on serviio online source as a webressource or live resource ?
Always been as live source

if you need any further information requests

thanks
<<

Illico

User avatar

DLNA master

Posts: 4645

Joined: Fri Jul 23, 2010 8:08 am

Location: France

Post Wed Jan 30, 2013 1:52 pm

Re: Progdvb stream under DLNA

Ok for your logging, but whats happen after ?...could you try to play the media and post log.
Illico
Sony 2010 KDL-46EX501 | BDP-S373 | SMP-N100 | Windows 8-i7 | Network DD HD-CE1.5TLU2 | Livebox2-UHD86 | ServiiDroid | ServiiGo | BubbleUPnP
Serviio beta tester - Moderator
<<

blase

Streaming enthusiast

Posts: 33

Joined: Thu Jan 19, 2012 8:55 pm

Post Wed Jan 30, 2013 2:16 pm

Re: Progdvb stream under DLNA

Log
  Code:
2013-01-30 15:14:22,700 DEBUG [RendererDAOImpl] Reading a Renderer with ip address 192.168.2.57
2013-01-30 15:14:22,701 DEBUG [ResourceDeliveryProcessor] Resource request accepted. Using client 'IPAddress=/192.168.2.57, Profile=Generic DLNA profile'
2013-01-30 15:14:22,702 DEBUG [ResourceDeliveryProcessor] Request for resource 1000000000010001 and type 'MEDIA_ITEM' received
2013-01-30 15:14:22,702 DEBUG [MediaResourceRetrievalStrategy] Getting information about media item 1000000000010001 (online)
2013-01-30 15:14:22,702 DEBUG [OnlineRepositoryDAOImpl] Reading an OnlineRepository (id = 1)
2013-01-30 15:14:22,703 DEBUG [VideoDeliveryEngine] Delivering item '1000000000010001' for client 'IPAddress=/192.168.2.57, Profile=Generic DLNA profile'
2013-01-30 15:14:22,703 DEBUG [VideoDeliveryEngine] Delivering file 'http://192.168.2.3:10999/list.m3u' in native format
2013-01-30 15:14:22,704 DEBUG [ResourceDeliveryProcessor] Stream entity has length: 50000000000
2013-01-30 15:14:22,704 DEBUG [ResourceDeliveryProcessor] Sending file back
2013-01-30 15:14:22,704 DEBUG [ResourceTransportRequestHandler] HTTP/1.1 200 OK, headers = [[Content-Type: video/mpeg,Content-Length: 50000000000,Date: Wed, 30 Jan 2013 14:14:22 GMT,Server: Windows 7, UPnP/1.0 DLNADOC/1.50, Serviio/1.0.1,Cache-control: no-cache,transferMode.dlna.org: Streaming]]
2013-01-30 15:14:22,704 DEBUG [OnlineInputStream] Reading 1512000 bytes starting at 0
2013-01-30 15:14:22,781 DEBUG [OnlineInputStream] Byte range not supported for http://192.168.2.3:10999/list.m3u, returning the whole stream
2013-01-30 15:14:22,781 DEBUG [OnlineInputStream] Trying basic stream handler
2013-01-30 15:14:22,785 DEBUG [OnlineInputStream] Trying ShoutCast stream handler
2013-01-30 15:14:22,796 DEBUG [WebServer] I/O error: SHOUTCast invalid response: Ùô¥9OÛ8?³)ÇGÝ´]:´iSn????Jv!øW? ?ߧHçÝ)2çµ}8ÐEÔ«å#L¦yKÈ?ùÒ?) å#Êkª?Iò?îÛ?)?e3l¤9HZ   *í   zr×
2013-01-30 15:14:22,797 DEBUG [OnlineInputStream] Closing stream


From my little understanding seems the shoutcast plugin is trying to decode the stream.

I will remove the shoutcast plugin and see what happens

Without the shoutcast plugin this is the result
  Code:
2013-01-30 15:22:17,258 DEBUG [WebServer] Incoming connection from /192.168.2.57:58920
2013-01-30 15:22:17,262 DEBUG [RendererDAOImpl] Reading a Renderer with ip address 192.168.2.57
2013-01-30 15:22:17,267 DEBUG [ResourceTransportRequestHandler] GET /resource/1000000000010001/MEDIA_ITEM/MPEG_TS_SD_EU_ISO-0/ORIGINAL HTTP/1.1, headers = [Host: 192.168.2.3:8895,User-Agent: NSPlayer/4.1.0.3856,Pragma: no-cache,rate=1.000000,request-context=2,Pragma: xPlayStrm=1,Pragma: xClientGUID={babac001-66da-81f8-a2-1b-a6-78-1b-ea-67-e6},Accept: */*,Connection: Close]]
2013-01-30 15:22:17,268 DEBUG [RendererDAOImpl] Reading a Renderer with ip address 192.168.2.57
2013-01-30 15:22:17,275 DEBUG [ResourceDeliveryProcessor] Resource request accepted. Using client 'IPAddress=/192.168.2.57, Profile=Generic DLNA profile'
2013-01-30 15:22:17,277 DEBUG [ResourceDeliveryProcessor] Request for resource 1000000000010001 and type 'MEDIA_ITEM' received
2013-01-30 15:22:17,277 DEBUG [MediaResourceRetrievalStrategy] Getting information about media item 1000000000010001 (online)
2013-01-30 15:22:17,277 DEBUG [OnlineRepositoryDAOImpl] Reading an OnlineRepository (id = 1)
2013-01-30 15:22:17,278 DEBUG [VideoDeliveryEngine] Delivering item '1000000000010001' for client 'IPAddress=/192.168.2.57, Profile=Generic DLNA profile'
2013-01-30 15:22:17,278 DEBUG [VideoDeliveryEngine] Delivering file 'http://192.168.2.3:10999/list.m3u' in native format
2013-01-30 15:22:17,279 DEBUG [ResourceDeliveryProcessor] Stream entity has length: 50000000000
2013-01-30 15:22:17,279 DEBUG [ResourceDeliveryProcessor] Sending file back
2013-01-30 15:22:17,279 DEBUG [ResourceTransportRequestHandler] HTTP/1.1 200 OK, headers = [[Content-Type: video/mpeg,Content-Length: 50000000000,Date: Wed, 30 Jan 2013 14:22:17 GMT,Server: Windows 7, UPnP/1.0 DLNADOC/1.50, Serviio/1.0.1,Cache-control: no-cache,transferMode.dlna.org: Streaming]]
2013-01-30 15:22:17,280 DEBUG [OnlineInputStream] Reading 1512000 bytes starting at 0
2013-01-30 15:22:17,369 DEBUG [OnlineInputStream] Byte range not supported for http://192.168.2.3:10999/list.m3u, returning the whole stream
2013-01-30 15:22:17,369 DEBUG [OnlineInputStream] Trying basic stream handler
2013-01-30 15:22:17,373 DEBUG [OnlineInputStream] Trying ShoutCast stream handler
2013-01-30 15:22:17,403 DEBUG [WebServer] I/O error: SHOUTCast invalid response: ÿÿÿÿÿÿÿÿÿÿÿÿÿÿÿÿÿÿÿÿÿÿÿÿÿÿÿÿÿÿÿÿÿÿÿÿ
2013-01-30 15:22:17,404 DEBUG [OnlineInputStream] Closing stream


I will install the latest version and leave only the pluging of livefeeds and see what happens.
<<

Illico

User avatar

DLNA master

Posts: 4645

Joined: Fri Jul 23, 2010 8:08 am

Location: France

Post Wed Jan 30, 2013 3:33 pm

Re: Progdvb stream under DLNA

What is the format of your .m3u ?
Illico
Sony 2010 KDL-46EX501 | BDP-S373 | SMP-N100 | Windows 8-i7 | Network DD HD-CE1.5TLU2 | Livebox2-UHD86 | ServiiDroid | ServiiGo | BubbleUPnP
Serviio beta tester - Moderator
<<

blase

Streaming enthusiast

Posts: 33

Joined: Thu Jan 19, 2012 8:55 pm

Post Wed Jan 30, 2013 3:37 pm

Re: Progdvb stream under DLNA

ffmpeg log

  Code:
C:\Program Files\Serviio\lib>ffmpeg.exe -i "http://192.168.2.3:10999/list.m3u"
ffmpeg version N-49352-gc46943e Copyright (c) 2000-2013 the FFmpeg developers
  built on Jan 26 2013 12:12:14 with gcc 4.7.2 (GCC)
  configuration: --enable-gpl --enable-version3 --disable-w32threads --enable-av
isynth --enable-bzlib --enable-fontconfig --enable-frei0r --enable-gnutls --enab
le-libass --enable-libbluray --enable-libcaca --enable-libfreetype --enable-libg
sm --enable-libmp3lame --enable-libopencore-amrnb --enable-libopencore-amrwb --e
nable-libopenjpeg --enable-libopus --enable-librtmp --enable-libschroedinger --e
nable-libspeex --enable-libtheora --enable-libtwolame --enable-libvo-aacenc --en
able-libvo-amrwbenc --enable-libvorbis --enable-libvpx --enable-libx264 --enable
-libxavs --enable-libxvid --enable-zlib
  libavutil      52. 17.100 / 52. 17.100
  libavcodec     54. 91.100 / 54. 91.100
  libavformat    54. 61.104 / 54. 61.104
  libavdevice    54.  3.102 / 54.  3.102
  libavfilter     3. 34.101 /  3. 34.101
  libswscale      2.  2.100 /  2.  2.100
  libswresample   0. 17.102 /  0. 17.102
  libpostproc    52.  2.100 / 52.  2.100
[mpeg2video @ 000000000221f620] 0x0 is invalid
    Last message repeated 15 times
[mpegts @ 000000000221b4c0] max_analyze_duration 5000000 reached at 5016000 micr
oseconds
[mpegts @ 000000000221b4c0] Estimating duration from bitrate, this may be inaccu
rate
Input #0, mpegts, from 'http://192.168.2.3:10999/list.m3u':
  Duration: N/A, start: 92770.602511, bitrate: 288 kb/s
  Program 1059
  No Program
    Stream #0:0[0x65]: Video: mpeg2video (Main) ([2][0][0][0] / 0x0002), yuv420p
, 720x576 [SAR 64:45 DAR 16:9], 25 fps, 25 tbr, 90k tbn, 50 tbc
    Stream #0:1[0x67]: Audio: mp2 ([4][0][0][0] / 0x0004), 48000 Hz, stereo, s16
p, 192 kb/s
    Stream #0:2[0x68]: Audio: mp2 ([4][0][0][0] / 0x0004), 48000 Hz, stereo, s16
p, 96 kb/s
    Stream #0:3[0x66](spa): Subtitle: dvb_teletext ([6][0][0][0] / 0x0006)
At least one output file must be specified
<<

Illico

User avatar

DLNA master

Posts: 4645

Joined: Fri Jul 23, 2010 8:08 am

Location: France

Post Wed Jan 30, 2013 3:39 pm

Re: Progdvb stream under DLNA

No, I mean the content of your "http://192.168.2.3:10999/list.m3u" (edit with notepad++)
Illico
Sony 2010 KDL-46EX501 | BDP-S373 | SMP-N100 | Windows 8-i7 | Network DD HD-CE1.5TLU2 | Livebox2-UHD86 | ServiiDroid | ServiiGo | BubbleUPnP
Serviio beta tester - Moderator
<<

blase

Streaming enthusiast

Posts: 33

Joined: Thu Jan 19, 2012 8:55 pm

Post Wed Jan 30, 2013 3:47 pm

Re: Progdvb stream under DLNA

OK the content is
  Code:
http://192.168.2.3:10999/laSexta3
<<

Illico

User avatar

DLNA master

Posts: 4645

Joined: Fri Jul 23, 2010 8:08 am

Location: France

Post Wed Jan 30, 2013 3:57 pm

Re: Progdvb stream under DLNA

  Code:
http://192.168.2.3:10999/laSexta3


This is not a valid M3U format : http://en.wikipedia.org/wiki/M3U

If a m3u file is edited with a text editor, must be saved in the Windows-1252 format
Illico
Sony 2010 KDL-46EX501 | BDP-S373 | SMP-N100 | Windows 8-i7 | Network DD HD-CE1.5TLU2 | Livebox2-UHD86 | ServiiDroid | ServiiGo | BubbleUPnP
Serviio beta tester - Moderator
<<

blase

Streaming enthusiast

Posts: 33

Joined: Thu Jan 19, 2012 8:55 pm

Post Wed Jan 30, 2013 4:49 pm

Re: Progdvb stream under DLNA

I upload the file .m3u renamed .txt

With that link has been running, until stopped working
Attachments
list.txt
rename to .m3u
(35 Bytes) Downloaded 260 times
<<

Illico

User avatar

DLNA master

Posts: 4645

Joined: Fri Jul 23, 2010 8:08 am

Location: France

Post Wed Jan 30, 2013 5:31 pm

Re: Progdvb stream under DLNA

There were a problem with your Progdvb server that did not return a good content type when serviio try to connect to your URL.
http://download.java.net/jdk8/docs/api/ ... .String%29
What is this server?
Illico
Sony 2010 KDL-46EX501 | BDP-S373 | SMP-N100 | Windows 8-i7 | Network DD HD-CE1.5TLU2 | Livebox2-UHD86 | ServiiDroid | ServiiGo | BubbleUPnP
Serviio beta tester - Moderator
<<

blase

Streaming enthusiast

Posts: 33

Joined: Thu Jan 19, 2012 8:55 pm

Post Thu Jan 31, 2013 9:30 am

Re: Progdvb stream under DLNA

ProgDVB is a program to watch TV/SAT on the PC (having a TV/SAT tuner installed).
Has an option called Prog Media Server, and is free with the program is what makes the broadcast TV.

Image
<<

blase

Streaming enthusiast

Posts: 33

Joined: Thu Jan 19, 2012 8:55 pm

Post Mon Feb 18, 2013 5:17 pm

Re: Progdvb stream under DLNA

Any idea where is the problem, I have reinstalled from scratch and still the same

Return to Serviio Support & Help

Who is online

Users browsing this forum: No registered users and 8 guests

Powered by phpBB © 2000, 2002, 2005, 2007 phpBB Group.
Designed by ST Software for PTF.